<?xml version="1.0" standalone="no"?>
<!DOCTYPE svg PUBLIC "-//W3C//DTD SVG 1.1//EN" "http://www.w3.org/Graphics/SVG/1.1/DTD/svg11.dtd" >
<svg xmlns="http://www.w3.org/2000/svg">
<metadata>
This is a custom SVG webfont generated by Font Squirrel.
Copyright   : Copyright c 2008 by Jos Buivengaexljbris All rights reserved
Designer    : Jos Buivenga
Foundry     : Jos Buivenga
Foundry URL : httpwwwjosbuivengademonnl
</metadata>
<defs>
<font id="webfontdDHGhRnA" horiz-adv-x="1241" >
<font-face units-per-em="2048" ascent="1536" descent="-512" />
<missing-glyph horiz-adv-x="557" />
<glyph unicode="&#xfb00;" horiz-adv-x="1228" d="M180 0v913h-129v117h129v37q0 119 38 202t98.5 118.5t112.5 49t106 13.5l63 -4v-125q-18 4 -49 4q-37 0 -70 -9t-72.5 -34t-63.5 -80t-24 -137v-35h465v37q0 119 38 202t98.5 118.5t112.5 49t106 13.5l63 -4v-125q-18 4 -49 4q-37 0 -69.5 -9t-72.5 -34t-63.5 -80 t-23.5 -137v-35h262v-117h-262v-913h-140v913h-465v-913h-139z" />
<glyph unicode="&#xfb01;" horiz-adv-x="1118" d="M180 0v913h-129v117h129v37q0 119 38 202t98.5 118.5t112.5 49t106 13.5l63 -4v-125q-20 4 -51 4q-37 0 -70 -9t-71.5 -32.5t-62.5 -80t-24 -136.5v-37h488q66 0 95.5 -29.5t29.5 -95.5v-739q0 -45 45 -45h86v-121h-145q-66 0 -95.5 29.5t-29.5 95.5v743q0 45 -45 45 h-429v-913h-139zM788 1264v176h136v-176h-136z" />
<glyph unicode="&#xfb02;" horiz-adv-x="1105" d="M535 1440h260q66 0 95.5 -30t29.5 -95v-1149q0 -45 45 -45h86v-121h-146q-66 0 -95.5 29.5t-29.5 95.5v1149q0 45 -45 45h-186q-229 0 -230 -252v-37h263v-117h-263v-913h-139v913h-129v117h129v37q0 96 26.5 169t64.5 109.5t90.5 60.5t91.5 29t82 5z" />
<glyph unicode="&#xfb03;" horiz-adv-x="1722" d="M180 0v913h-129v117h129v37q0 119 38 202t98.5 118.5t112.5 49t106 13.5l63 -4v-125q-20 4 -49 4q-37 0 -71 -9t-72.5 -34t-62.5 -80t-24 -137v-35h465v37q0 119 38 202t98.5 118.5t112.5 49t106 13.5l63 -4v-125q-20 4 -49 4q-37 0 -70.5 -9t-72.5 -34t-62.5 -80 t-23.5 -137v-35h487q66 0 95.5 -29.5t29.5 -95.5v-739q0 -45 45 -45h86v-121h-145q-66 0 -95.5 29.5t-29.5 95.5v743q0 45 -45 45h-428v-913h-140v913h-465v-913h-139zM1393 1264v176h135v-176h-135z" />
<glyph unicode="&#xfb04;" horiz-adv-x="1708" d="M1139 1440h260q66 0 95.5 -30t29.5 -95v-1149q0 -45 45 -45h86v-121h-146q-66 0 -95.5 29.5t-29.5 95.5v1149q0 45 -45 45h-186q-229 0 -229 -252v-37h262v-117h-262v-913h-140v913h-465v-913h-139v913h-129v117h129v43q0 117 36 198t96.5 116.5t111.5 49t106 13.5l68 -4 v-125q-23 4 -53 4q-37 0 -71 -9t-71.5 -34t-60.5 -79t-23 -132v-41h465v37q0 96 27 169t64.5 109.5t90 60.5t91.5 29t82 5z" />
<glyph unicode="fj" horiz-adv-x="1163" d="M180 0v913h-129v117h129v37q0 119 38 202t98.5 118.5t112.5 49t106 13.5l63 -4v-125q-20 4 -49 4q-37 0 -71 -9t-72.5 -34t-62.5 -80t-24 -137v-35h535q66 0 95.5 -29.5t29.5 -95.5v-944q0 -121 -38 -203t-99.5 -117.5t-113.5 -49t-107 -13.5l-60 6v121q18 -2 45 -2 q37 0 71 9t74 34t64.5 82t24.5 139v901q0 45 -45 45h-476v-913h-139zM838 1264v176h135v-176h-135z" />
<glyph unicode=" "  horiz-adv-x="557" />
<glyph unicode="&#x09;" horiz-adv-x="557" />
<glyph unicode="&#xa0;" horiz-adv-x="557" />
<glyph unicode="!" horiz-adv-x="608" d="M238 377l-7 1063h144l-6 -1063h-131zM227 0v158h158v-158h-158z" />
<glyph unicode="&#x22;" horiz-adv-x="638" d="M383 1114v346h121v-346h-121zM135 1114v346h121v-346h-121z" />
<glyph unicode="#" horiz-adv-x="1460" d="M305 0l70 399h-291l20 115h289l72 401h-289l19 115h290l72 410h125l-72 -410h355l71 410h125l-71 -410h286l-20 -115h-287l-70 -401h285l-18 -115h-287l-70 -399h-125l70 399h-354l-70 -399h-125zM520 514h352l72 401h-354z" />
<glyph unicode="$" horiz-adv-x="1089" d="M94 246l107 86q4 -8 14 -23.5t44 -54.5t72 -67.5t101.5 -53t132.5 -24.5q127 0 206 73.5t79 182.5q0 72 -39 128t-101.5 94t-138.5 72l-152 74q-77 39 -139.5 86t-101.5 120t-39 167q0 135 100.5 233.5t266.5 118.5v195h117v-191q129 -12 232 -71.5t103 -173.5v-103h-135 v68q0 63 -70.5 106t-170.5 43q-135 0 -215 -64.5t-80 -158.5q0 -80 52 -140.5t132 -96t171 -81t171 -91.5t132 -131t52 -197q0 -150 -103 -262.5t-271 -128.5v-191h-117v191q-80 8 -151.5 38.5t-116.5 67.5t-80 74t-49 61z" />
<glyph unicode="%" horiz-adv-x="1521" d="M414 895q-119 0 -203 83t-84 202q0 117 84 200.5t202.5 83.5t203.5 -84t85 -200q0 -119 -83.5 -202t-204.5 -83zM139 0l1098 1440h145l-1095 -1440h-148zM413.5 1010q69.5 0 119 49t49.5 121q0 70 -49.5 120t-119 50t-117.5 -50.5t-48 -119.5q0 -72 48 -121t117.5 -49z M819 258q0 119 84 203t203 84t204 -84t85 -203q0 -117 -85 -200t-204 -83t-203 83t-84 200zM942 260q0 -72 47 -121t117 -49t119 49t49 121q0 70 -49 120t-119 50t-117 -50t-47 -120z" />
<glyph unicode="&#x26;" horiz-adv-x="1277" d="M94 401q0 127 68.5 233.5t191.5 141.5v4q-8 2 -21.5 8.5t-47 31t-60 57t-48 92t-21.5 131.5q0 162 115.5 263t310.5 101q35 0 76.5 -5t66.5 -11l25 -6l-41 -117q-68 14 -119 14q-125 0 -206 -68.5t-81 -178.5q0 -43 11.5 -82t41 -83t96 -70t160.5 -26h299v199h142v-199 h190v-126h-190v-211q0 -252 -126 -385.5t-347 -133.5q-213 0 -349.5 122t-136.5 304zM240 406q0 -127 92 -212t247.5 -85t243.5 95t88 294v207h-295q-184 0 -280 -80t-96 -219z" />
<glyph unicode="'" horiz-adv-x="391" d="M135 1114v346h121v-346h-121z" />
<glyph unicode="(" horiz-adv-x="632" d="M174 680q0 461 221 815h131q-223 -377 -223 -805q0 -473 236 -885h-129q-236 386 -236 875z" />
<glyph unicode=")" horiz-adv-x="632" d="M94 -195q236 412 236 885q0 428 -224 805h132q221 -360 221 -815q0 -489 -236 -875h-129z" />
<glyph unicode="*" horiz-adv-x="976" d="M311 690l-108 78l192 246v4l-301 86l41 129l295 -109l-12 316h139l-14 -316l299 107l41 -125l-303 -88v-4l192 -246l-106 -80l-177 260h-4z" />
<glyph unicode="+" d="M86 522v119h473v522h125v-522h471v-119h-471v-522h-125v522h-473z" />
<glyph unicode="," horiz-adv-x="440" d="M164 168h149l-149 -367h-117z" />
<glyph unicode="-" horiz-adv-x="884" d="M152 518v127h581v-127h-581z" />
<glyph unicode="." horiz-adv-x="440" d="M141 0v164h158v-164h-158z" />
<glyph unicode="/" horiz-adv-x="665" d="M6 -86l520 1606h129l-518 -1606h-131z" />
<glyph unicode="0" horiz-adv-x="1232" d="M616 -25q-496 0 -495 746q0 743 495 743q180 0 295 -102t159 -262t44 -379q0 -746 -498 -746zM616.5 109q350.5 0 350.5 612q0 610 -350.5 610t-350.5 -610q0 -612 350.5 -612z" />
<glyph unicode="1" horiz-adv-x="974" d="M131 0v127h322v1057l2 80h-4q-14 -31 -72 -86l-154 -154l-90 92l326 324h135v-1313h315v-127h-780z" />
<glyph unicode="2" horiz-adv-x="1155" d="M86 141q0 147 79 257t190 176l224 129q112 62 190.5 150.5t78.5 205.5t-81 193.5t-214 76.5q-106 0 -181 -47t-75 -108v-68h-135v106q0 66 40 116t102.5 79t128 43t124.5 14q201 0 319.5 -115.5t118.5 -287.5q0 -139 -78.5 -245.5t-190.5 -174.5l-223 -130 q-112 -62 -191 -148.5t-79 -194.5q0 -41 48 -41h602q45 0 45 45v96h133v-143q0 -66 -30 -95.5t-95 -29.5h-721q-72 0 -100.5 32.5t-28.5 108.5z" />
<glyph unicode="3" horiz-adv-x="1081" d="M53 176l86 107q6 -6 17.5 -18.5t49.5 -42t79 -52.5t104.5 -41t126.5 -18q131 0 228.5 88t97.5 223q0 139 -102.5 221t-247.5 82h-101l-33 84l355 426q35 47 73 80v4q-41 -6 -116 -6h-375q-45 0 -45 -45v-97h-133v144q0 68 27.5 96.5t93.5 28.5h731v-94l-424 -498 q74 -4 146.5 -27.5t142 -71t112.5 -131t43 -194.5q0 -184 -136 -316.5t-339 -132.5q-80 0 -156.5 20.5t-129 50.5t-94.5 59.5t-60 50.5z" />
<glyph unicode="4" horiz-adv-x="1150" d="M31 397v95l700 948h154v-916h229v-127h-229v-397h-144v397h-710zM743 524v588l7 139h-5q-35 -59 -73 -110l-400 -529l-75 -90v-4q57 6 118 6h428z" />
<glyph unicode="5" horiz-adv-x="1165" d="M111 180l90 101q4 -6 13 -18.5t40 -41t65.5 -51.5t93 -41t122.5 -18q154 0 256 96t102 239q0 147 -107.5 242.5t-265.5 95.5q-72 0 -141.5 -19.5t-102.5 -39.5l-32 -20l-74 30l61 580q6 68 34 96.5t91 28.5h473q66 0 94.5 -30t28.5 -95v-144h-133v97q0 45 -45 45h-364 q-39 0 -45 -45l-37 -326l-13 -82h4q90 53 218 53q217 0 360 -136t143 -333q0 -195 -144 -332t-361 -137q-80 0 -154 21.5t-121 51.5t-83 59.5t-50 52.5z" />
<glyph unicode="6" horiz-adv-x="1146" d="M608 -25q-231 0 -375.5 185.5t-144.5 472.5q0 113 22.5 227.5t72.5 224t122 193.5t179.5 135t236.5 51q70 0 136.5 -15t96.5 -30l31 -14l-53 -125q-90 51 -209 51q-143 0 -250.5 -89t-162 -219t-68.5 -284h4q49 82 149.5 128t216.5 46q197 0 323 -128t126 -328 q0 -219 -129 -350.5t-324 -131.5zM242 541q0 -154 106.5 -293t257.5 -139q143 0 226 97t83 249q0 150 -89 240.5t-236 90.5q-139 0 -243.5 -77.5t-104.5 -167.5z" />
<glyph unicode="7" horiz-adv-x="1048" d="M162 0l626 1180l80 133v4q-37 -4 -108 -4h-518q-45 0 -45 -45v-97h-136v144q0 66 29 95.5t94 29.5h850v-99l-712 -1341h-160z" />
<glyph unicode="8" horiz-adv-x="1167" d="M96 406q0 70 27 135t64.5 108t74.5 76t64 47l26 14v5l-21 11q-13 7 -47 33.5t-59.5 58.5t-47 84t-21.5 109q0 158 116.5 267.5t317.5 109.5t320.5 -106.5t119.5 -276.5q0 -61 -19.5 -120.5t-48 -100.5t-57 -72.5t-49.5 -46.5l-18 -16v-4q113 -57 172 -134t59 -196 q0 -170 -140.5 -293t-342.5 -123q-201 0 -345.5 117t-144.5 314zM575 825q104 -39 130 -39q45 0 113.5 94.5t68.5 196.5q0 115 -83 184.5t-214 69.5q-133 0 -212 -69.5t-79 -174.5q0 -102 68.5 -156.5t207.5 -105.5zM244 412q0 -135 101 -219t241 -84q133 0 234.5 80.5 t101.5 203.5q0 102 -68 158.5t-207 112.5q-135 57 -168 57q-55 0 -145 -95t-90 -214z" />
<glyph unicode="9" horiz-adv-x="1146" d="M162 35l53 125q90 -51 209 -51q143 0 251.5 90t163 220t66.5 283h-4q-49 -82 -150.5 -129t-215.5 -47q-197 0 -322 128t-125 329q0 219 128 350t323 131q231 0 375.5 -185t144.5 -472q0 -143 -38 -285.5t-110.5 -267.5t-198.5 -202t-286 -77q-70 0 -136.5 14.5 t-96.5 30.5zM557 653q139 0 243.5 78t104.5 168q0 154 -106.5 293t-257.5 139q-143 0 -226.5 -97t-83.5 -249q0 -150 89.5 -241t236.5 -91z" />
<glyph unicode=":" horiz-adv-x="579" d="M211 866v164h158v-164h-158zM211 0v164h158v-164h-158z" />
<glyph unicode=";" horiz-adv-x="579" d="M211 866v164h158v-164h-158zM111 -199l98 367h149l-131 -367h-116z" />
<glyph unicode="&#x3c;" d="M141 530v103l926 414v-138l-752 -325v-4l752 -326v-137z" />
<glyph unicode="=" d="M143 700v119h955v-119h-955zM143 344v119h955v-119h-955z" />
<glyph unicode="&#x3e;" d="M158 117v137l751 326v4l-751 325v138l925 -414v-103z" />
<glyph unicode="?" horiz-adv-x="882" d="M313 377v92q0 90 37 164t89 125l106 99q53 48 90 109.5t37 131.5q0 100 -76 167.5t-193 67.5q-135 -2 -247 -88l-76 105q14 12 40.5 31.5t112.5 52t177 32.5q176 0 292.5 -102t116.5 -260q0 -94 -38 -170t-92 -126l-107 -97q-53 -47 -91 -109.5t-38 -136.5v-88h-140z M305 0v158h158v-158h-158z" />
<glyph unicode="@" horiz-adv-x="1513" d="M84 495.5q0 313.5 214 532.5t515 219q258 0 380 -110.5t122 -276.5v-645h145v-115h-551q-174 0 -291.5 116t-117.5 277.5t116.5 277.5t292.5 116h267q-4 102 -92.5 170.5t-260.5 68.5q-250 0 -423 -185t-173 -445q0 -264 173 -445.5t434 -181.5v-123q-317 0 -533.5 218 t-216.5 531.5zM643 495.5q0 -116.5 81 -198.5t198 -82h254v563h-250q-121 0 -202 -83t-81 -199.5z" />
<glyph unicode="A" horiz-adv-x="1345" d="M25 0v127h26q57 0 74 45l471 1268h154l471 -1268q16 -45 73 -45h25v-127h-66q-78 0 -110.5 22.5t-59.5 96.5l-125 340h-571l-127 -340q-29 -74 -60.5 -96.5t-107.5 -22.5h-67zM426 584h494l-191 514l-55 186h-4q-31 -119 -56 -186z" />
<glyph unicode="B" d="M215 125v1188h-133v127h612q172 0 280.5 -98.5t108.5 -264.5q0 -223 -184 -313v-4q111 -31 176.5 -128t65.5 -229q0 -186 -122 -294.5t-308 -108.5h-371q-66 0 -95.5 29.5t-29.5 95.5zM358 815h334q109 0 176.5 69.5t67.5 182.5q0 111 -66.5 178.5t-179.5 67.5h-332v-498 zM358 172q0 -45 45 -45h308q131 0 205.5 76t74.5 205t-77.5 206.5t-204.5 77.5h-351v-520z" />
<glyph unicode="C" horiz-adv-x="1421" d="M78 731q0 311 203.5 522t506.5 211q82 0 171.5 -17t174.5 -52t139 -96.5t54 -139.5v-119h-135v80q0 94 -129 151.5t-270 57.5q-242 0 -404 -169t-162 -429t164 -440t408 -180q250 0 438 170l33 32l82 -104q-8 -10 -23.5 -25.5t-69 -55.5t-114 -70.5t-154.5 -56.5 t-194 -26q-313 0 -516 218.5t-203 537.5z" />
<glyph unicode="D" horiz-adv-x="1464" d="M219 125v1188h-133v127h578q330 0 526 -191.5t196 -527.5q0 -340 -196.5 -530.5t-525.5 -190.5h-320q-66 0 -95.5 29.5t-29.5 95.5zM362 172q0 -45 46 -45h241q270 0 429 154.5t159 439.5q0 283 -158.5 437.5t-429.5 154.5h-287v-1141z" />
<glyph unicode="E" horiz-adv-x="1142" d="M219 125v1188h-133v127h823q66 0 95.5 -30t29.5 -95v-144h-135v97q0 45 -45 45h-492v-525h541v-126h-541v-490q0 -45 46 -45h505q45 0 45 45v96h134v-143q0 -66 -30 -95.5t-95 -29.5h-623q-66 0 -95.5 29.5t-29.5 95.5z" />
<glyph unicode="F" horiz-adv-x="1021" d="M219 0v1313h-133v127h766q66 0 94.5 -30t28.5 -95v-144h-133v97q0 45 -45 45h-435v-541h523v-127h-523v-645h-143z" />
<glyph unicode="G" horiz-adv-x="1495" d="M80 723q0 311 207 526t512 215q285 0 475 -151l29 -25l-84 -106q-18 16 -52 40.5t-143 65.5t-223 41q-244 0 -408 -173t-164 -433q0 -264 162 -438t408 -174q80 0 155.5 21.5t128 52t92 62.5t58.5 52l20 23v178q0 45 -45 45h-88v127h144q66 0 95.5 -30t29.5 -95v-547 h-132v109l3 61h-5q-6 -8 -19 -21.5t-58 -46t-96.5 -58.5t-132.5 -47.5t-165 -21.5q-297 0 -500.5 213t-203.5 535z" />
<glyph unicode="H" horiz-adv-x="1550" d="M219 0v1268q0 45 -45 45h-88v127h152q66 0 95 -30t29 -95v-531h828v531q0 66 28.5 95.5t94.5 29.5h153v-127h-88q-45 0 -45 -45v-1268h-143v657h-828v-657h-143z" />
<glyph unicode="I" horiz-adv-x="600" d="M94 0v127h135v1186h-135v127h412v-127h-137v-1186h137v-127h-412z" />
<glyph unicode="J" horiz-adv-x="1034" d="M49 403v58h144v-49q0 -158 76.5 -229.5t187.5 -71.5q109 0 184.5 71.5t75.5 225.5v860q0 45 -45 45h-357v127h420q66 0 95.5 -30t29.5 -95v-912q0 -217 -118.5 -322.5t-286.5 -105.5t-287 106.5t-119 321.5z" />
<glyph unicode="K" horiz-adv-x="1208" d="M219 0v1268q0 45 -45 45h-88v127h152q66 0 95 -30t29 -95v-500h173q90 0 120 51l349 574h163l-370 -604q-37 -59 -74 -80v-4q35 -12 70 -82l249 -496q14 -31 37 -39t68 -8h41v-127h-76q-90 0 -127 19.5t-72 89.5l-262 526q-25 53 -131 53h-158v-688h-143z" />
<glyph unicode="L" horiz-adv-x="1085" d="M219 125v1143q0 45 -45 45h-88v127h152q66 0 95 -30t29 -95v-1143q0 -45 46 -45h477q45 0 45 45v96h135v-143q0 -66 -29.5 -95.5t-95.5 -29.5h-596q-66 0 -95.5 29.5t-29.5 95.5z" />
<glyph unicode="M" horiz-adv-x="1730" d="M45 0v127h76q43 0 45 45l100 1268h146l381 -838l71 -170h4q37 96 70 170l381 838h145l101 -1268q2 -45 45 -45h78v-127h-140q-66 0 -93.5 28.5t-31.5 96.5l-67 874l-6 201h-4q-39 -127 -74 -201l-342 -731h-129l-340 731l-76 205h-4q0 -127 -6 -205l-68 -874 q-4 -68 -31.5 -96.5t-93.5 -28.5h-137z" />
<glyph unicode="N" horiz-adv-x="1556" d="M86 0v127h88q45 0 45 45v1268h131l735 -1026l117 -189h4q-10 113 -10 189v901q0 66 29.5 95.5t95.5 29.5h152v-127h-89q-45 0 -45 -45v-1268h-131l-735 1026l-119 186h-4q12 -111 12 -186v-901q0 -66 -29.5 -95.5t-94.5 -29.5h-152z" />
<glyph unicode="O" horiz-adv-x="1619" d="M78 729q0 309 213 522t520 213t520 -213t213 -522q0 -315 -214 -534.5t-519 -219.5q-307 0 -520 219.5t-213 534.5zM227 729q0 -260 170 -439t414 -179q242 0 413 179t171 439q0 254 -170 427t-414 173t-414 -173t-170 -427z" />
<glyph unicode="P" horiz-adv-x="1185" d="M219 0v1313h-133v127h608q195 0 320 -119t125 -315q0 -199 -125 -320t-320 -121h-332v-565h-143zM362 692h314q143 0 229 84t86 230q0 143 -85 225t-228 82h-316v-621z" />
<glyph unicode="Q" horiz-adv-x="1619" d="M78 729q0 309 212 522t517 213q311 0 524 -213t213 -522q0 -283 -180 -496l176 -176l-88 -92l-176 178q-197 -168 -469 -168q-305 0 -517 219.5t-212 534.5zM227 729q0 -260 168 -439t412 -179q205 0 356 120l13 11l-172 174l88 92l170 -176q133 170 133 397 q0 254 -169 426t-419 172q-246 0 -413 -172t-167 -426z" />
<glyph unicode="R" horiz-adv-x="1239" d="M219 0v1313h-133v127h610q182 0 298 -111.5t116 -298.5q0 -158 -82 -259t-197 -126v-4q29 -16 50 -57l206 -410q14 -31 37 -39t66 -8h29v-127h-64q-90 0 -127 19.5t-72 89.5l-206 411q-29 55 -56.5 70.5t-89.5 15.5h-242v-606h-143zM362 733h320q129 0 204 79t75 214 q0 133 -75 210t-202 77h-322v-580z" />
<glyph unicode="S" horiz-adv-x="1060" d="M76 180l88 105q6 -6 17.5 -18.5t48 -43t77.5 -53.5t103.5 -42t126.5 -19q121 0 202.5 71.5t81.5 184.5q0 98 -72.5 167.5t-177.5 116.5l-210 97q-105 50 -177.5 138.5t-72.5 211.5q0 154 122.5 261t317.5 107q82 0 165 -20.5t153.5 -79.5t70.5 -147v-103h-135v68 q0 63 -75 106t-177 43q-135 0 -215 -67.5t-80 -163.5q0 -59 30.5 -107.5t81 -80t114 -64.5t130 -59.5t130 -65.5t113.5 -83t81 -112.5t31 -154.5q0 -168 -120 -283t-317 -115q-82 0 -159.5 21.5t-128.5 51.5t-91 59.5t-59 52.5z" />
<glyph unicode="T" horiz-adv-x="1269" d="M563 0v1313h-356q-45 0 -45 -45v-97h-131v152q0 66 25.5 91.5t90.5 25.5h975q66 0 91.5 -25.5t25.5 -91.5v-152h-133v97q0 45 -45 45h-354v-1313h-144z" />
<glyph unicode="U" horiz-adv-x="1468" d="M203 494v774q0 45 -45 45h-88v127h151q66 0 95.5 -30t29.5 -95v-815q0 -180 105.5 -284.5t281.5 -104.5q178 0 283.5 105.5t105.5 287.5v811q0 66 30 95.5t95 29.5h152v-127h-88q-45 0 -45 -45v-774q0 -233 -146.5 -376t-384 -143t-385 143t-147.5 376z" />
<glyph unicode="V" horiz-adv-x="1337" d="M592 0l-473 1268q-16 45 -74 45h-20v127h63q78 0 109.5 -22.5t58.5 -96.5l354 -969l56 -186h4q29 113 55 186l354 969q27 74 59.5 96.5t110.5 22.5h62v-127h-19q-57 0 -73 -45l-474 -1268h-153z" />
<glyph unicode="W" horiz-adv-x="1935" d="M465 0l-330 1268q-12 45 -76 45h-24v127h63q82 0 119 -23.5t55 -95.5l250 -993l31 -154h4q18 80 39 154l317 1106h142l288 -1106l33 -154h4q14 80 33 154l250 993q18 72 55 95.5t119 23.5h64v-127h-23q-63 0 -76 -45l-332 -1268h-170l-268 1001l-47 213h-4 q-25 -119 -51 -210l-295 -1004h-170z" />
<glyph unicode="X" horiz-adv-x="1167" d="M31 0l458 752l-311 508q-33 53 -102 53h-43v127h76q78 0 116.5 -22.5t81.5 -92.5l185 -309l92 -164h4q43 90 88 164l184 309q43 70 82 92.5t117 22.5h76v-127h-43q-70 0 -103 -53l-313 -508l461 -752h-164l-299 496l-92 157h-4q-41 -86 -86 -159l-297 -494h-164z" />
<glyph unicode="Y" horiz-adv-x="1212" d="M535 0v627l-385 633q-33 53 -97 53h-33v127h56q76 0 113.5 -20.5t82.5 -94.5l244 -407l88 -162h4q43 86 88 162l244 407q45 74 83 94.5t114 20.5h55v-127h-33q-63 0 -94 -53l-387 -633v-627h-143z" />
<glyph unicode="Z" horiz-adv-x="1177" d="M39 0v100l772 1082l50 65q26 33 40 49l14 17v4q-35 -4 -104 -4h-573q-45 0 -45 -45v-97h-134v144q0 66 30 95.5t95 29.5h908v-101l-770 -1081l-52 -65l-41 -50l-14 -16v-4q35 4 107 4h620q45 0 45 45v96h133v-143q0 -66 -29.5 -95.5t-95.5 -29.5h-956z" />
<glyph unicode="[" horiz-adv-x="620" d="M207 -70v1440q0 66 29.5 95.5t95.5 29.5h151v-115h-102q-45 0 -45 -45v-1370q0 -45 45 -45h102v-115h-151q-66 0 -95.5 29.5t-29.5 95.5z" />
<glyph unicode="\" horiz-adv-x="649" d="M530 -86l-520 1606h131l518 -1606h-129z" />
<glyph unicode="]" horiz-adv-x="620" d="M137 -80h103q45 0 45 45v1370q0 45 -45 45h-103v115h152q66 0 95.5 -29.5t29.5 -95.5v-1440q0 -66 -30 -95.5t-95 -29.5h-152v115z" />
<glyph unicode="^" d="M150 512l405 928h96l406 -928h-133l-320 758l-319 -758h-135z" />
<glyph unicode="_" horiz-adv-x="1077" d="M10 0h1057v-119h-1057v119z" />
<glyph unicode="`" horiz-adv-x="737" d="M369 1540l-179 244h156l143 -244h-120z" />
<glyph unicode="a" horiz-adv-x="1083" d="M82 281q0 354 631 354h57v12q0 160 -61.5 225.5t-204.5 65.5q-63 0 -132 -20.5t-69 -69.5v-66h-133v99q0 49 39 87t97.5 55t108.5 24.5t91 7.5q227 0 315 -104.5t88 -291.5v-493q0 -45 45 -45h86v-121h-141q-66 0 -94.5 29.5t-28.5 93.5l2 76h-4q2 0 -9 -22.5t-37 -56.5 t-62.5 -67t-99 -55.5t-134.5 -22.5q-141 0 -245.5 80.5t-104.5 225.5zM225 289q0 -78 60.5 -136.5t169.5 -58.5q139 0 227 119t88 264v47h-59q-55 0 -93 -2t-102.5 -8t-109 -21.5t-89.5 -40t-68.5 -66.5t-23.5 -97z" />
<glyph unicode="b" horiz-adv-x="1196" d="M172 0v1274q0 45 -45 45h-86v121h145q66 0 95.5 -30t29.5 -95v-373l-4 -84h4l12 22q7 13 35.5 47t65.5 59.5t100.5 47t137.5 21.5q205 0 326.5 -149.5t121.5 -391.5t-130 -390.5t-335 -148.5q-203 0 -315 162l-23 37h-4q4 -35 4 -84v-90h-135zM307 512q0 -168 86 -291 t242 -123q141 0 236.5 113t95.5 303q0 186 -91.5 300t-234.5 114q-141 0 -237.5 -104.5t-96.5 -311.5z" />
<glyph unicode="c" horiz-adv-x="1081" d="M82 514q0 236 155.5 388.5t387.5 152.5q49 0 107.5 -11.5t118.5 -34t100 -68.5t40 -105v-93h-131v60q0 59 -79 93t-156 34q-170 0 -285 -116t-115 -300t118 -298t286 -114q186 0 317 131l15 15l65 -105l-16.5 -17t-49 -41t-81.5 -51.5t-113 -40t-143 -18.5 q-233 0 -387 150.5t-154 388.5z" />
<glyph unicode="d" horiz-adv-x="1204" d="M86 516q0 242 129 390.5t334 148.5q207 0 315 -158l21 -35h4q-4 35 -4 78v334q0 45 -45 45h-86v121h145q66 0 95.5 -30t29.5 -95v-1149q0 -45 45 -45h86v-121h-143q-123 0 -123 115l4 65h-4l-11 -22q-7 -14 -36 -49t-66 -62t-101.5 -49.5t-139.5 -22.5q-205 0 -327 149.5 t-122 391.5zM555 100q141 0 237.5 104.5t96.5 311.5q0 170 -86 292t-242 122q-141 0 -236.5 -112.5t-95.5 -301t90.5 -302.5t235.5 -114z" />
<glyph unicode="e" horiz-adv-x="1122" d="M82 514q0 246 146.5 393.5t361.5 147.5q205 0 318.5 -136.5t113.5 -338.5l-4 -70h-791q2 -188 118 -299t282 -111q170 0 299 117l10 10l68 -104q-16 -16 -48 -41t-131.5 -66t-203.5 -41q-231 0 -385 151.5t-154 387.5zM233 621h646q-6 154 -88 235.5t-203 81.5 q-133 0 -231.5 -83.5t-123.5 -233.5z" />
<glyph unicode="f" horiz-adv-x="624" d="M180 0v913h-129v117h129v37q0 119 38 202t98.5 118.5t112.5 49t106 13.5l63 -4v-125q-18 4 -49 4q-37 0 -70 -9t-72.5 -32.5t-63.5 -80t-24 -136.5v-37h263v-117h-263v-913h-139z" />
<glyph unicode="g" horiz-adv-x="1185" d="M86 534.5q0 233.5 121 377t325 143.5q78 0 141.5 -18.5t99.5 -44t60.5 -51.5t32.5 -44l8 -18h5v39q0 113 116 112h144v-121h-84q-45 0 -45 -45v-839q0 -229 -142.5 -342t-353.5 -113q-176 0 -336 82l53 117q127 -72 279 -72q162 0 261 80t99 243v91l2 73h-4 q-96 -178 -323 -178q-207 0 -333 147.5t-126 381zM565 131q137 0 222 95.5t85 308.5q0 393 -325 393q-150 0 -234 -103.5t-84 -288t92 -295t244 -110.5z" />
<glyph unicode="h" horiz-adv-x="1239" d="M172 0v1274q0 45 -45 45h-86v121h145q66 0 95.5 -29t29.5 -92v-436l-4 -84h4q37 92 144.5 174t263.5 82q186 0 266 -100.5t80 -299.5v-489q0 -45 45 -45h86v-121h-145q-66 0 -95.5 29.5t-29.5 95.5v493q0 70 -7.5 118t-30 94.5t-69.5 70t-119 23.5q-131 0 -234.5 -82 t-137.5 -211q-16 -55 -17 -137v-494h-139z" />
<glyph unicode="i" horiz-adv-x="514" d="M184 1264v176h135v-176h-135zM188 125v739q0 45 -45 45h-86v121h146q66 0 95.5 -29.5t29.5 -95.5v-739q0 -45 45 -45h86v-121h-146q-66 0 -95.5 29.5t-29.5 95.5z" />
<glyph unicode="j" horiz-adv-x="548" d="M233 1264v176h134v-176h-134zM-43 -295q18 -2 45 -2q37 0 72 9t74.5 34t63.5 82t24 139v897q0 45 -46 45h-86v121h146q66 0 95.5 -29.5t29.5 -95.5v-944q0 -121 -38 -203t-99.5 -117.5t-113.5 -49t-108 -13.5l-59 6v121z" />
<glyph unicode="k" horiz-adv-x="1019" d="M172 0v1274q0 45 -45 45h-86v121h145q68 0 96.5 -27t28.5 -92v-684h107q78 0 117 49l264 344h170l-297 -377q-23 -29 -42.5 -47t-27.5 -22l-8 -4v-5q31 -14 63 -75l187 -334q14 -27 33.5 -36t60.5 -9h55v-121h-96q-78 0 -110.5 19.5t-67.5 82.5l-205 369q-25 45 -108 45 h-95v-516h-139z" />
<glyph unicode="l" horiz-adv-x="501" d="M176 125v1149q0 45 -45 45h-86v121h145q66 0 95.5 -30t29.5 -95v-1149q0 -45 45 -45h86v-121h-145q-66 0 -95.5 29.5t-29.5 95.5z" />
<glyph unicode="m" horiz-adv-x="1906" d="M178 0v864q0 45 -45 45h-86v121h143q125 0 125 -115v-47l-4 -73h4q39 106 146.5 183t226.5 77q272 0 320 -258h4q43 109 147.5 183.5t231.5 74.5q182 0 262 -100.5t80 -299.5v-489q0 -45 45 -45h86v-121h-146q-66 0 -95.5 29.5t-29.5 95.5v496q0 145 -47 226t-176 81 q-113 0 -203 -86t-123 -205q-18 -57 -18 -150v-487h-139v621q0 68 -7.5 114.5t-28 95t-66.5 73t-115 24.5q-121 0 -211 -88t-125 -215q-16 -57 -17 -138v-487h-139z" />
<glyph unicode="n" horiz-adv-x="1245" d="M178 0v864q0 45 -45 45h-86v121h143q125 0 125 -115v-47l-4 -73h4q37 94 142.5 177t267.5 83q186 0 266 -100.5t80 -299.5v-489q0 -45 45 -45h86v-121h-145q-66 0 -95.5 29.5t-29.5 95.5v493q0 145 -44 225.5t-179 80.5q-131 0 -235.5 -81t-139.5 -210q-16 -57 -17 -139 v-494h-139z" />
<glyph unicode="o" horiz-adv-x="1251" d="M82 520q0 227 158.5 381t384.5 154q227 0 385.5 -153.5t158.5 -381.5q0 -231 -158.5 -388t-383.5 -157q-227 0 -386 157t-159 388zM225 520q0 -178 117 -299t285 -121q166 0 282.5 121t116.5 299q0 174 -116.5 291t-282.5 117q-168 0 -285 -117t-117 -291z" />
<glyph unicode="p" horiz-adv-x="1202" d="M178 -410v1274q0 45 -45 45h-86v121h141q123 0 123 -108l-2 -70h4l12 21q7 13 35.5 49t64.5 63t101.5 48.5t141.5 21.5q205 0 326.5 -149.5t121.5 -391.5t-129 -390.5t-332 -148.5q-70 0 -131 20.5t-97 49.5t-62.5 56.5t-36.5 48.5l-11 20h-4q4 -37 4 -90v-490h-139z M313 512q0 -168 87 -291t241 -123q141 0 236.5 113t95.5 303q0 188 -90 301t-236 113q-141 0 -237.5 -104.5t-96.5 -311.5z" />
<glyph unicode="q" horiz-adv-x="1204" d="M88 516q0 242 129 390.5t334 148.5q70 0 131 -20.5t98 -50.5t63.5 -58.5t37.5 -48.5l10 -21h4q-2 29 -2 68q0 106 123 106h141v-121h-86q-45 0 -45 -45v-1274h-139v494l4 90h-4l-11 -21q-7 -13 -36 -47t-66 -61t-100.5 -48.5t-136.5 -21.5q-205 0 -327 149.5t-122 391.5z M557 100q141 0 237.5 104.5t96.5 311.5q0 170 -86 292t-242 122q-141 0 -237.5 -112.5t-96.5 -301t91.5 -302.5t236.5 -114z" />
<glyph unicode="r" horiz-adv-x="741" d="M178 0v864q0 45 -45 45h-86v121h143q125 0 125 -117v-69l-4 -78h4q39 123 124 198.5t202 75.5l55 -6v-137q-25 4 -51 4q-106 0 -185 -73.5t-114 -192.5q-29 -92 -29 -201v-434h-139z" />
<glyph unicode="s" horiz-adv-x="901" d="M59 156l80 96q4 -6 13.5 -16.5t40 -38t64.5 -48t88 -37t112 -16.5q92 0 154.5 43t62.5 121q0 61 -59.5 106.5t-144.5 78t-170 69.5t-144.5 103.5t-59.5 158.5q0 135 102.5 207t264.5 72q45 0 94 -9.5t100.5 -29t85 -58t33.5 -90.5v-88h-131v49q0 51 -57.5 78t-120.5 27 q-229 0 -229 -150q0 -63 59 -108t144 -77t170 -68.5t144.5 -104.5t59.5 -162q0 -127 -102.5 -208t-257.5 -81q-227 0 -373 154z" />
<glyph unicode="t" horiz-adv-x="686" d="M190 375v538h-135v117h138v285h137v-285h258v-117h-258v-524q0 -70 17.5 -121t42 -79.5t57 -45t59 -21.5t55.5 -5l47 4v-125q-25 -4 -59 -4q-43 0 -84 6t-93.5 29.5t-90 62.5t-64.5 113t-27 172z" />
<glyph unicode="u" horiz-adv-x="1234" d="M174 375v489q0 45 -45 45h-86v121h145q66 0 95.5 -28.5t29.5 -92.5v-497q0 -145 45 -225.5t181 -80.5q168 0 273.5 128t105.5 303v493h139v-864q0 -45 45 -45h86v-121h-141q-125 0 -125 115v47l4 74h-4q-39 -94 -144.5 -177.5t-257.5 -83.5q-180 0 -263 98.5t-83 301.5z " />
<glyph unicode="v" horiz-adv-x="1060" d="M455 0l-336 862q-18 47 -72 47h-18v121h55q74 0 105.5 -21.5t58.5 -90.5l248 -644l34 -120h5q16 70 34 120l248 644q27 70 58.5 91t103.5 21h53v-121h-18q-55 0 -72 -47l-336 -862h-151z" />
<glyph unicode="w" horiz-adv-x="1708" d="M414 0l-295 862q-16 47 -72 47h-27v121h72q76 0 107.5 -21.5t54.5 -93.5l211 -653l31 -110h4q16 61 32 110l252 764h140l252 -764l32 -110h4q12 59 29 110l213 653q23 72 54.5 93.5t107.5 21.5h72v-121h-29q-55 0 -72 -47l-295 -862h-153l-252 733l-31 111h-4 q-14 -59 -33 -111l-250 -733h-155z" />
<glyph unicode="x" horiz-adv-x="976" d="M39 0l358 537l-223 329q-31 43 -94 43h-43v121h76q78 0 111.5 -20.5t80.5 -91.5l148 -230l34 -61h5l32 61l150 230q47 72 80.5 92t111.5 20h74v-121h-41q-70 0 -96 -41l-223 -331l360 -537h-164l-252 383l-32 57h-5q-16 -29 -34 -57l-252 -383h-162z" />
<glyph unicode="y" horiz-adv-x="1103" d="M82 -227q0 -4 18.5 -21.5t57.5 -37t78 -19.5q121 0 190 168l61 141l-362 858q-20 47 -72 47h-20v121h63q70 0 99.5 -21.5t58.5 -90.5l264 -644l37 -110h4q14 59 35 110l254 644q27 70 57.5 91t102.5 21h63v-121h-20q-53 0 -72 -47l-444 -1077q-41 -100 -118 -157.5 t-177 -57.5q-133 0 -220 94l-4 6z" />
<glyph unicode="z" horiz-adv-x="1021" d="M80 0v90l579 723l82 94v4q-35 -4 -102 -4h-377q-45 0 -45 -45v-80h-131v123q0 66 29.5 95.5t95.5 29.5h715v-92l-578 -721l-86 -94v-4q37 4 105 4h426q45 0 45 45v80h131v-123q0 -66 -30 -95.5t-95 -29.5h-764z" />
<glyph unicode="{" horiz-adv-x="667" d="M242 170v195q0 59 -18.5 105t-43 69.5t-50.5 38t-44 16.5l-18 4v127q6 0 18 3t42 18.5t53.5 38t42 69.5t18.5 107v167q0 96 24.5 168t58 109t80 58.5t78 26.5t64.5 5h31v-115h-19q-27 0 -52.5 -7t-60 -30.5t-55 -79t-20.5 -139.5v-200q0 -55 -16.5 -103.5t-41 -76 t-49 -47t-41.5 -25.5l-16 -8v-5q6 -2 17.5 -7t40 -24.5t50 -46t39 -74.5t17.5 -108v-225q0 -82 21.5 -138t55 -79t59 -31t52.5 -8h19v-115q-12 -2 -31 -2q-33 0 -64.5 5.5t-78 28t-80 59t-58 108.5t-24.5 168z" />
<glyph unicode="|" horiz-adv-x="583" d="M227 -322v1936h129v-1936h-129z" />
<glyph unicode="}" horiz-adv-x="667" d="M90 -82h21q25 0 50 8t59 31t55.5 79t21.5 138v225q0 59 16.5 107.5t41 75t49 46t40.5 25.5l17 6v5q-6 2 -17.5 7t-40 26.5t-50 48t-39 74.5t-17.5 104v200q0 84 -20.5 139.5t-55.5 79t-59.5 30.5t-50.5 7h-21v115h33q31 0 62.5 -5t77.5 -27.5t80 -58.5t58.5 -107.5 t24.5 -168.5v-167q0 -174 137 -226l37 -10v-127q-6 0 -18.5 -3t-42 -18.5t-53 -38t-42 -68.5t-18.5 -105v-195q0 -96 -24.5 -168t-58.5 -108.5t-80 -59t-77.5 -28t-62.5 -5.5l-33 2v115z" />
<glyph unicode="~" d="M137 428q0 162 69.5 239.5t190.5 77.5q61 0 110.5 -21.5t81.5 -52.5l61 -64q30 -32 69 -53.5t86 -21.5q82 0 113.5 63.5t31.5 141.5h121q0 -162 -69.5 -239.5t-190.5 -77.5q-76 0 -134.5 33.5t-89 72.5t-78.5 73t-106 34q-82 0 -113.5 -63.5t-31.5 -141.5h-121z" />
<glyph unicode="&#xa1;" horiz-adv-x="608" d="M223 872v158h158v-158h-158zM231 -410l7 1063h131l6 -1063h-144z" />
<glyph unicode="&#xa2;" horiz-adv-x="1116" d="M524 -80v227q-195 23 -303 182.5t-108 391t108.5 390.5t302.5 181v228h117v-228q248 -29 367 -303l-131 -49q-94 221 -287 221q-162 0 -247 -123t-85 -317q0 -197 84 -318.5t248 -121.5q193 0 287 221l131 -51q-125 -281 -367 -304v-227h-117z" />
<glyph unicode="&#xa3;" horiz-adv-x="1191" d="M111 0v127h129v541h-93v112h93v305q0 162 119.5 270.5t302.5 108.5q178 0 313 -110l8 -6l-88 -103q-98 86 -233 86q-129 0 -204 -72.5t-75 -181.5v-297h391v-112h-391v-541h539q45 0 45 45v96h133v-143q0 -66 -30 -95.5t-95 -29.5h-864z" />
<glyph unicode="&#xa5;" horiz-adv-x="1243" d="M219 436v107h332v84l-59 94h-281v104h215v4l-268 439q-27 45 -99 45h-24v127h49q78 0 119 -21.5t84 -93.5l243 -407l88 -160h5q43 84 88 160l245 407q41 72 83 93.5t120 21.5h47v-127h-24q-72 0 -99 -45l-266 -439v-4h205v-104h-272l-56 -94v-84h328v-107h-328v-436h-143 v436h-332z" />
<glyph unicode="&#xa7;" horiz-adv-x="849" d="M297 174l-139 889q-8 33 -8 72q0 143 97 236t255 93q137 -2 237 -86l-71 -96q-70 59 -166 59t-161 -58t-65 -161q0 -33 9 -63l135 -885h-123zM123 -41l72 98q72 -61 168 -61t159.5 60.5t63.5 162.5q0 35 -8 66l-134 878h123l140 -889q8 -53 8 -71q0 -143 -98.5 -236.5 t-256.5 -93.5q-137 2 -237 86z" />
<glyph unicode="&#xa8;" horiz-adv-x="1009" d="M629 1608v176h121v-176h-121zM322 1608v176h120v-176h-120z" />
<glyph unicode="&#xa9;" horiz-adv-x="1624" d="M84 721q0 309 212 526t511 217q305 0 519 -217t214 -526q0 -313 -213 -529.5t-520 -216.5q-301 0 -512 217.5t-211 528.5zM205 721q0 -268 174 -451.5t428 -183.5q260 0 437 183.5t177 451.5q0 266 -177 449.5t-437 183.5q-254 0 -428 -183.5t-174 -449.5zM406 717 q0 172 114.5 297t306.5 125q63 0 121 -19.5t94.5 -47.5t65.5 -56.5t41 -48.5l12 -19l-94 -63l-10 15q-6 9 -28.5 33.5t-48.5 43t-66 34t-83 15.5q-141 0 -223 -90t-82 -217t81 -217t224 -90q135 0 226 127l10 14l94 -64q-4 -8 -13 -20t-40 -45t-66.5 -58.5t-93 -46 t-121.5 -20.5q-195 0 -308 124t-113 294z" />
<glyph unicode="&#xaa;" horiz-adv-x="847" d="M348 782q-92 0 -158.5 53.5t-66.5 143.5q0 225 389 225h27q-2 86 -35 122t-111 36q-106 0 -106 -41v-49h-109v80q0 41 45 67.5t89 33.5t83 7q143 0 199.5 -66.5t56.5 -185.5v-290q0 -18 19 -19h59v-104h-96q-84 0 -86 79v25h-4q-6 -12 -18.5 -31.5t-63 -52.5t-113.5 -33z M362 881q80 0 127.5 68.5t51.5 164.5h-25q-276 0 -276 -129q0 -43 32.5 -73.5t89.5 -30.5zM119 541v96h620v-96h-620z" />
<glyph unicode="&#xab;" horiz-adv-x="1069" d="M444 578l336 421h152l-336 -421l336 -420h-152zM414 158l-336 420l336 421h149l-336 -421l336 -420h-149z" />
<glyph unicode="&#xac;" d="M143 700v119h955v-495h-125v376h-830z" />
<glyph unicode="&#xad;" horiz-adv-x="884" d="M152 518v127h581v-127h-581z" />
<glyph unicode="&#xae;" horiz-adv-x="1624" d="M84 721q0 309 212 526t511 217q305 0 519 -217t214 -526q0 -313 -213 -529.5t-520 -216.5q-301 0 -512 217.5t-211 528.5zM205 721q0 -268 174 -451.5t428 -183.5q260 0 437 183.5t177 451.5q0 266 -177 449.5t-437 183.5q-254 0 -428 -183.5t-174 -449.5zM565 322v702 h-73v96h358q106 0 173 -65.5t67 -171.5q0 -84 -44.5 -140.5t-105.5 -70.5v-4q23 -8 41 -43l92 -185q12 -27 55 -26h21v-92h-59q-47 0 -71 11t-44 50l-111 217q-25 45 -73 45h-111v-323h-115zM680 735h149q66 0 104 39t38 109q0 68 -38 104.5t-104 36.5h-149v-289z" />
<glyph unicode="&#xaf;" horiz-adv-x="944" d="M229 1608v110h504v-110h-504z" />
<glyph unicode="&#x2c9;" horiz-adv-x="944" d="M229 1608v110h504v-110h-504z" />
<glyph unicode="&#xb0;" horiz-adv-x="784" d="M391 893q-119 0 -203 83t-84 202q0 117 84 200.5t203 83.5t204 -84t85 -200q0 -119 -84 -202t-205 -83zM391.5 1008q69.5 0 118.5 49t49 121q0 70 -49 120t-118.5 50t-117 -50.5t-47.5 -119.5q0 -72 47.5 -121t117 -49z" />
<glyph unicode="&#xb1;" d="M86 522v119h473v522h125v-522h471v-119h-471v-522h-125v522h-473zM123 -213h995v-119h-995v119z" />
<glyph unicode="&#xb2;" horiz-adv-x="837" d="M197 543q-51 0 -72 22.5t-21 79.5q0 63 20.5 113.5t64.5 91.5t77 62.5t96 58.5q66 37 101 60.5t67.5 68.5t32.5 98q0 63 -44 105.5t-118 42.5q-57 0 -98 -25t-41 -57v-54h-110v80q0 80 82.5 123t166.5 43q131 0 206 -72.5t75 -185.5q0 -61 -20.5 -109.5t-68.5 -89.5 t-77 -59t-96.5 -57t-100 -61.5t-65.5 -66.5t-33 -93q0 -12 19 -13h358q12 0 12 15v71h111v-102q0 -47 -21.5 -68.5t-68.5 -21.5h-434z" />
<glyph unicode="&#xb3;" horiz-adv-x="837" d="M406 526q-80 0 -156 37t-111 74l-37 37l82 80q10 -12 29.5 -32t78 -52.5t116.5 -32.5q72 0 126 50t54 126t-56.5 121t-136.5 45h-71l-21 70l197 239l47 49v4q-35 -6 -74 -6h-194q-20 0 -21 -22v-58h-111v88q0 53 20.5 75t76.5 22h452v-80l-241 -283q96 -8 174 -78.5 t78 -187.5q0 -123 -89 -204t-212 -81z" />
<glyph unicode="&#xb4;" horiz-adv-x="759" d="M236 1540l143 244h156l-179 -244h-120z" />
<glyph unicode="&#xb5;" horiz-adv-x="1234" d="M43 909v121h145q66 0 95.5 -28.5t29.5 -92.5v-497q0 -145 45 -225.5t181 -80.5q168 0 273.5 128t105.5 303v493h139v-864q0 -45 45 -45h86v-121h-141q-125 0 -125 115v47l4 74h-6q-4 -10 -12.5 -28t-42.5 -63t-74.5 -79.5t-113.5 -62.5t-157 -28q-76 0 -133 21.5 t-76 44.5l-18 20h-4q14 -104 14 -155v-316h-129v1274q0 45 -45 45h-86z" />
<glyph unicode="&#x3bc;" horiz-adv-x="1234" d="M43 909v121h145q66 0 95.5 -28.5t29.5 -92.5v-497q0 -145 45 -225.5t181 -80.5q168 0 273.5 128t105.5 303v493h139v-864q0 -45 45 -45h86v-121h-141q-125 0 -125 115v47l4 74h-6q-4 -10 -12.5 -28t-42.5 -63t-74.5 -79.5t-113.5 -62.5t-157 -28q-76 0 -133 21.5 t-76 44.5l-18 20h-4q14 -104 14 -155v-316h-129v1274q0 45 -45 45h-86z" />
<glyph unicode="&#xb6;" horiz-adv-x="1175" d="M578 -102v596q-201 0 -345.5 138t-144.5 336.5t143.5 335t343.5 136.5h490v-127h-371v-1415h-116zM821 -102v1292h119v-1292h-119z" />
<glyph unicode="&#xb7;" horiz-adv-x="440" d="M141 508v164h158v-164h-158z" />
<glyph unicode="&#x2219;" horiz-adv-x="440" d="M141 508v164h158v-164h-158z" />
<glyph unicode="&#xb8;" horiz-adv-x="845" d="M324 41l82 -14v-17l-25 -123q66 -10 105.5 -48t39.5 -97q0 -82 -57 -122t-141 -40l-101 10v99q39 -12 86 -13q104 0 104.5 70t-116.5 70l-31 -2z" />
<glyph unicode="&#xb9;" horiz-adv-x="837" d="M164 543v106h192v563l2 70h-4q-10 -20 -26 -37l-92 -90l-74 76l209 209h104v-791h191v-106h-502z" />
<glyph unicode="&#xba;" horiz-adv-x="933" d="M467 784q-143 0 -242.5 98.5t-99.5 243.5q0 141 100.5 238.5t241.5 97.5t241.5 -97t100.5 -239q0 -145 -99.5 -243.5t-242.5 -98.5zM467 889q96 0 162.5 67.5t66.5 169.5q0 100 -66.5 167t-162.5 67t-162.5 -66.5t-66.5 -167.5q0 -102 66.5 -169.5t162.5 -67.5zM160 541 v96h620v-96h-620z" />
<glyph unicode="&#xbb;" horiz-adv-x="1069" d="M504 158l336 420l-336 421h151l336 -421l-336 -420h-151zM135 158l336 420l-336 421h152l336 -421l-336 -420h-152z" />
<glyph unicode="&#xbc;" horiz-adv-x="1822" d="M551 0l608 1440h127l-606 -1440h-129zM160 543v106h192v563l2 70h-4q-10 -20 -26 -37l-93 -90l-73 76l209 209h102v-791h188v-106h-497zM1016 240v75l426 582h123v-551h137v-106h-137v-240h-117v240h-432zM1155 344q29 2 43 2h252v313l2 80h-4q-14 -29 -33 -55l-231 -305 l-29 -33v-2z" />
<glyph unicode="&#xbd;" horiz-adv-x="1822" d="M528 0l609 1440h127l-607 -1440h-129zM160 543v106h192v563l2 70h-4q-10 -20 -26 -37l-93 -90l-73 76l209 209h102v-791h188v-106h-497zM1063 102q0 63 20.5 114.5t64.5 91.5t78 62.5t95 57.5q66 37 100.5 60.5t67.5 68.5t33 98q0 63 -44 105.5t-118 42.5 q-57 0 -98 -24.5t-41 -57.5v-51h-111v78q0 82 83 123.5t167 41.5q131 0 205.5 -72.5t74.5 -185.5q0 -61 -20.5 -109t-67.5 -88t-77.5 -60.5t-96.5 -57.5q-49 -29 -74.5 -46.5t-59.5 -46t-48 -59t-14 -67.5q0 -14 16 -15h358q12 0 13 15v72h110v-103q0 -90 -90 -90h-434 q-51 0 -71.5 22.5t-20.5 79.5z" />
<glyph unicode="&#xbe;" horiz-adv-x="1822" d="M549 0l608 1440h127l-606 -1440h-129zM430 526q-80 0 -155.5 37t-110.5 74l-37 37l82 80q10 -12 29.5 -32t78 -52.5t115.5 -32.5q72 0 126 50t54 126t-56 121t-136 45h-72l-20 70l196 239l47 49v4q-35 -6 -73 -6h-195q-20 0 -20 -22v-58h-111v88q0 53 20.5 75t75.5 22 h453v-80l-242 -283q96 -8 174 -78.5t78 -187.5q0 -123 -89 -204t-212 -81zM1016 240v75l426 582h123v-551h137v-106h-137v-240h-117v240h-432zM1155 344q29 2 43 2h252v313l2 80h-4q-14 -29 -33 -55l-231 -305l-29 -33v-2z" />
<glyph unicode="&#xbf;" horiz-adv-x="882" d="M420 872v158h158v-158h-158zM63 -68q0 94 38 169t91.5 126.5t107.5 98.5t92 109.5t38 135.5v82h137v-88q0 -90 -36.5 -163.5t-89.5 -123.5l-104 -99q-52 -48 -89 -109.5t-37 -130.5q0 -100 75.5 -168t192.5 -68q61 0 124 21.5t93 42.5l31 22l76 -102q-14 -12 -41 -32 t-113 -52.5t-176 -32.5q-176 0 -293 102t-117 260z" />
<glyph unicode="&#xc0;" horiz-adv-x="1345" d="M25 0v127h26q57 0 74 45l471 1268h154l471 -1268q16 -45 73 -45h25v-127h-66q-78 0 -110.5 22.5t-59.5 96.5l-125 340h-571l-127 -340q-29 -74 -60.5 -96.5t-107.5 -22.5h-67zM426 584h494l-191 514l-55 186h-4q-31 -119 -56 -186zM612 1540l-178 244h156l143 -244h-121z " />
<glyph unicode="&#xc1;" horiz-adv-x="1345" d="M25 0v127h26q57 0 74 45l471 1268h154l471 -1268q16 -45 73 -45h25v-127h-66q-78 0 -110.5 22.5t-59.5 96.5l-125 340h-571l-127 -340q-29 -74 -60.5 -96.5t-107.5 -22.5h-67zM426 584h494l-191 514l-55 186h-4q-31 -119 -56 -186zM612 1540l144 244h155l-178 -244h-121z " />
<glyph unicode="&#xc2;" horiz-adv-x="1345" d="M25 0v127h26q57 0 74 45l471 1268h154l471 -1268q16 -45 73 -45h25v-127h-66q-78 0 -110.5 22.5t-59.5 96.5l-125 340h-571l-127 -340q-29 -74 -60.5 -96.5t-107.5 -22.5h-67zM426 584h494l-191 514l-55 186h-4q-31 -119 -56 -186zM432 1540l170 244h143l170 -244h-129 l-110 166h-4l-111 -166h-129z" />
<glyph unicode="&#xc3;" horiz-adv-x="1345" d="M25 0v127h26q57 0 74 45l471 1268h154l471 -1268q16 -45 73 -45h25v-127h-66q-78 0 -110.5 22.5t-59.5 96.5l-125 340h-571l-127 -340q-29 -74 -60.5 -96.5t-107.5 -22.5h-67zM426 584h494l-191 514l-55 186h-4q-31 -119 -56 -186zM350 1546q0 240 191 240q59 0 103 -37 t81 -74t74 -37q82 0 82 142h108q0 -240 -190 -240q-59 0 -104.5 37t-81 73t-74.5 36q-82 0 -82 -140h-107z" />
<glyph unicode="&#xc4;" horiz-adv-x="1345" d="M25 0v127h26q57 0 74 45l471 1268h154l471 -1268q16 -45 73 -45h25v-127h-66q-78 0 -110.5 22.5t-59.5 96.5l-125 340h-571l-127 -340q-29 -74 -60.5 -96.5t-107.5 -22.5h-67zM426 584h494l-191 514l-55 186h-4q-31 -119 -56 -186zM768 1608v176h121v-176h-121zM461 1608 v176h121v-176h-121z" />
<glyph unicode="&#xc5;" horiz-adv-x="1345" d="M25 0v127h26q57 0 74 45l471 1268h154l471 -1268q16 -45 73 -45h25v-127h-66q-78 0 -110.5 22.5t-59.5 96.5l-125 340h-571l-127 -340q-29 -74 -60.5 -96.5t-107.5 -22.5h-67zM426 584h494l-191 514l-55 186h-4q-31 -119 -56 -186zM673.5 1518q-63.5 0 -107.5 40.5 t-44 104t44 104.5t107.5 41t107.5 -41t44 -104.5t-44 -104t-107.5 -40.5zM674 1595q29 0 48 19.5t19 48.5q0 31 -19.5 50.5t-48 19.5t-48 -19.5t-19.5 -50.5q0 -29 18.5 -48.5t49.5 -19.5z" />
<glyph unicode="&#xc6;" horiz-adv-x="1685" d="M25 0v127h18q57 0 74 45l487 1268h848q66 0 95.5 -30t29.5 -95v-144h-135v97q0 45 -45 45h-475v-525h524v-126h-524v-490q0 -27 13 -36t44 -9h477q45 0 45 45v96h135v-143q0 -66 -29.5 -95.5t-95.5 -29.5h-589q-80 0 -112 25.5t-32 99.5v537h-325l-205 -543 q-27 -74 -58.5 -96.5t-109.5 -22.5h-55zM500 788h278v525h-82z" />
<glyph unicode="&#xc7;" horiz-adv-x="1421" d="M78 731q0 311 203.5 522t506.5 211q82 0 171.5 -17t174.5 -52t139 -96.5t54 -139.5v-119h-135v80q0 94 -129 151.5t-270 57.5q-242 0 -404 -169t-162 -429t161 -440t405 -180q84 0 162.5 20.5t134 50t97.5 59t62 50.5l21 20l82 -102l-24 -24q-15 -15 -67.5 -55 t-110.5 -69.5t-151.5 -56.5t-191.5 -29l-19 -88q66 -10 105 -48t39 -97q0 -84 -56.5 -123t-140.5 -39l-100 10v99q39 -12 86 -13q102 0 102 70t-116 70l-29 -2l39 166q-285 27 -462 238.5t-177 512.5z" />
<glyph unicode="&#xc8;" horiz-adv-x="1142" d="M219 125v1188h-133v127h823q66 0 95.5 -30t29.5 -95v-144h-135v97q0 45 -45 45h-492v-525h541v-126h-541v-490q0 -45 46 -45h505q45 0 45 45v96h134v-143q0 -66 -30 -95.5t-95 -29.5h-623q-66 0 -95.5 29.5t-29.5 95.5zM541 1540l-179 244h156l144 -244h-121z" />
<glyph unicode="&#xc9;" horiz-adv-x="1142" d="M219 125v1188h-133v127h823q66 0 95.5 -30t29.5 -95v-144h-135v97q0 45 -45 45h-492v-525h541v-126h-541v-490q0 -45 46 -45h505q45 0 45 45v96h134v-143q0 -66 -30 -95.5t-95 -29.5h-623q-66 0 -95.5 29.5t-29.5 95.5zM541 1540l143 244h156l-178 -244h-121z" />
<glyph unicode="&#xca;" horiz-adv-x="1142" d="M219 125v1188h-133v127h823q66 0 95.5 -30t29.5 -95v-144h-135v97q0 45 -45 45h-492v-525h541v-126h-541v-490q0 -45 46 -45h505q45 0 45 45v96h134v-143q0 -66 -30 -95.5t-95 -29.5h-623q-66 0 -95.5 29.5t-29.5 95.5zM360 1540l170 244h144l170 -244h-129l-111 166h-4 l-111 -166h-129z" />
<glyph unicode="&#xcb;" horiz-adv-x="1142" d="M219 125v1188h-133v127h823q66 0 95.5 -30t29.5 -95v-144h-135v97q0 45 -45 45h-492v-525h541v-126h-541v-490q0 -45 46 -45h505q45 0 45 45v96h134v-143q0 -66 -30 -95.5t-95 -29.5h-623q-66 0 -95.5 29.5t-29.5 95.5zM696 1608v176h121v-176h-121zM389 1608v176h121 v-176h-121z" />
<glyph unicode="&#xcc;" horiz-adv-x="600" d="M94 0v127h135v1186h-135v127h412v-127h-137v-1186h137v-127h-412zM238 1540l-179 244h156l143 -244h-120z" />
<glyph unicode="&#xcd;" horiz-adv-x="600" d="M94 0v127h135v1186h-135v127h412v-127h-137v-1186h137v-127h-412zM238 1540l143 244h156l-179 -244h-120z" />
<glyph unicode="&#xce;" horiz-adv-x="600" d="M94 0v127h135v1186h-135v127h412v-127h-137v-1186h137v-127h-412zM57 1540l170 244h144l170 -244h-129l-111 166h-4l-111 -166h-129z" />
<glyph unicode="&#xcf;" horiz-adv-x="600" d="M94 0v127h135v1186h-135v127h412v-127h-137v-1186h137v-127h-412zM393 1608v176h121v-176h-121zM86 1608v176h121v-176h-121z" />
<glyph unicode="&#xd0;" horiz-adv-x="1464" d="M219 125v537h-102v122h102v529h-133v127h578q330 0 526 -191.5t196 -527.5q0 -340 -196.5 -530.5t-525.5 -190.5h-320q-66 0 -95.5 29.5t-29.5 95.5zM362 172q0 -45 46 -45h241q270 0 429 154.5t159 439.5q0 283 -158.5 437.5t-429.5 154.5h-287v-529h336v-122h-336v-490 z" />
<glyph unicode="&#xd1;" horiz-adv-x="1556" d="M86 0v127h88q45 0 45 45v1268h131l735 -1026l117 -189h4q-10 113 -10 189v901q0 66 29.5 95.5t95.5 29.5h152v-127h-89q-45 0 -45 -45v-1268h-131l-735 1026l-119 186h-4q12 -111 12 -186v-901q0 -66 -29.5 -95.5t-94.5 -29.5h-152zM477 1546q0 240 191 240q59 0 103 -37 t81 -74t74 -37q82 0 82 142h108q0 -240 -190 -240q-59 0 -104.5 37t-81 73t-74.5 36q-82 0 -82 -140h-107z" />
<glyph unicode="&#xd2;" horiz-adv-x="1619" d="M78 729q0 309 213 522t520 213t520 -213t213 -522q0 -315 -214 -534.5t-519 -219.5q-307 0 -520 219.5t-213 534.5zM227 729q0 -260 170 -439t414 -179q242 0 413 179t171 439q0 254 -170 427t-414 173t-414 -173t-170 -427zM743 1540l-178 244h156l143 -244h-121z" />
<glyph unicode="&#xd3;" horiz-adv-x="1619" d="M78 729q0 309 213 522t520 213t520 -213t213 -522q0 -315 -214 -534.5t-519 -219.5q-307 0 -520 219.5t-213 534.5zM227 729q0 -260 170 -439t414 -179q242 0 413 179t171 439q0 254 -170 427t-414 173t-414 -173t-170 -427zM743 1540l144 244h155l-178 -244h-121z" />
<glyph unicode="&#xd4;" horiz-adv-x="1619" d="M78 729q0 309 213 522t520 213t520 -213t213 -522q0 -315 -214 -534.5t-519 -219.5q-307 0 -520 219.5t-213 534.5zM227 729q0 -260 170 -439t414 -179q242 0 413 179t171 439q0 254 -170 427t-414 173t-414 -173t-170 -427zM563 1540l170 244h144l170 -244h-129 l-111 166h-4l-111 -166h-129z" />
<glyph unicode="&#xd5;" horiz-adv-x="1619" d="M78 729q0 309 213 522t520 213t520 -213t213 -522q0 -315 -214 -534.5t-519 -219.5q-307 0 -520 219.5t-213 534.5zM227 729q0 -260 170 -439t414 -179q242 0 413 179t171 439q0 254 -170 427t-414 173t-414 -173t-170 -427zM481 1546q0 240 191 240q59 0 103 -37t81 -74 t74 -37q82 0 82 142h108q0 -240 -190 -240q-59 0 -104.5 37t-81 73t-74.5 36q-82 0 -82 -140h-107z" />
<glyph unicode="&#xd6;" horiz-adv-x="1619" d="M78 729q0 309 213 522t520 213t520 -213t213 -522q0 -315 -214 -534.5t-519 -219.5q-307 0 -520 219.5t-213 534.5zM227 729q0 -260 170 -439t414 -179q242 0 413 179t171 439q0 254 -170 427t-414 173t-414 -173t-170 -427zM899 1608v176h121v-176h-121zM592 1608v176 h121v-176h-121z" />
<glyph unicode="&#xd7;" d="M98 84l443 498l-443 497l84 84l439 -493l438 493l84 -84l-445 -497l445 -498l-84 -84l-438 494l-439 -494z" />
<glyph unicode="&#xd8;" horiz-adv-x="1626" d="M238 10l100 142q-121 104 -189.5 254.5t-68.5 322.5q0 309 213 522t520 213q209 0 387 -110l98 137l84 -61l-96 -136q260 -223 260 -565q0 -315 -214 -534.5t-519 -219.5q-215 0 -391 115l-98 -139zM424 268l696 973q-143 88 -307 88q-244 0 -414 -173t-170 -427 q0 -283 195 -461zM504 203q145 -92 309 -92q244 0 414 179t170 439q0 272 -197 447z" />
<glyph unicode="&#xd9;" horiz-adv-x="1468" d="M203 494v774q0 45 -45 45h-88v127h151q66 0 95.5 -30t29.5 -95v-815q0 -180 105.5 -284.5t281.5 -104.5q178 0 283.5 105.5t105.5 287.5v811q0 66 30 95.5t95 29.5h152v-127h-88q-45 0 -45 -45v-774q0 -233 -146.5 -376t-384 -143t-385 143t-147.5 376zM676 1540 l-178 244h155l144 -244h-121z" />
<glyph unicode="&#xda;" horiz-adv-x="1468" d="M203 494v774q0 45 -45 45h-88v127h151q66 0 95.5 -30t29.5 -95v-815q0 -180 105.5 -284.5t281.5 -104.5q178 0 283.5 105.5t105.5 287.5v811q0 66 30 95.5t95 29.5h152v-127h-88q-45 0 -45 -45v-774q0 -233 -146.5 -376t-384 -143t-385 143t-147.5 376zM676 1540l143 244 h156l-178 -244h-121z" />
<glyph unicode="&#xdb;" horiz-adv-x="1468" d="M203 494v774q0 45 -45 45h-88v127h151q66 0 95.5 -30t29.5 -95v-815q0 -180 105.5 -284.5t281.5 -104.5q178 0 283.5 105.5t105.5 287.5v811q0 66 30 95.5t95 29.5h152v-127h-88q-45 0 -45 -45v-774q0 -233 -146.5 -376t-384 -143t-385 143t-147.5 376zM496 1540l170 244 h143l170 -244h-129l-111 166h-4l-110 -166h-129z" />
<glyph unicode="&#xdc;" horiz-adv-x="1468" d="M203 494v774q0 45 -45 45h-88v127h151q66 0 95.5 -30t29.5 -95v-815q0 -180 105.5 -284.5t281.5 -104.5q178 0 283.5 105.5t105.5 287.5v811q0 66 30 95.5t95 29.5h152v-127h-88q-45 0 -45 -45v-774q0 -233 -146.5 -376t-384 -143t-385 143t-147.5 376zM831 1608v176h121 v-176h-121zM524 1608v176h121v-176h-121z" />
<glyph unicode="&#xdd;" horiz-adv-x="1212" d="M535 0v627l-385 633q-33 53 -97 53h-33v127h56q76 0 113.5 -20.5t82.5 -94.5l244 -407l88 -162h4q43 86 88 162l244 407q45 74 83 94.5t114 20.5h55v-127h-33q-63 0 -94 -53l-387 -633v-627h-143zM547 1540l143 244h156l-178 -244h-121z" />
<glyph unicode="&#xde;" horiz-adv-x="1196" d="M219 0v1268q0 45 -45 45h-88v127h152q66 0 95 -30t29 -95v-131h332q195 0 320 -119t125 -317q0 -197 -126 -318t-323 -121h-328v-309h-143zM362 436h314q143 0 229 83t86 228.5t-85 227.5t-228 82h-316v-621z" />
<glyph unicode="&#xdf;" horiz-adv-x="1142" d="M41 0v121h84q45 0 45 45v921q0 174 123 275.5t289 101.5q160 0 259 -90t99 -215q0 -68 -36 -128t-78 -95t-77.5 -79t-35.5 -85q0 -49 62.5 -103.5t137 -100.5t137 -126t62.5 -174q0 -139 -96 -216t-236 -77q-178 0 -309 111l-8 8l51 109q12 -12 34.5 -28.5t90.5 -45.5 t131 -29q86 0 143.5 43t57.5 129q0 68 -62.5 131.5t-138.5 107.5t-138.5 112.5t-62.5 144.5q0 57 36 110.5t78 89.5t78 86t36 103q0 72 -58.5 126t-163.5 54q-106 0 -186 -69.5t-80 -190.5v-952q0 -66 -29.5 -95.5t-95.5 -29.5h-143z" />
<glyph unicode="&#xe0;" horiz-adv-x="1083" d="M82 281q0 354 631 354h57v12q0 160 -61.5 225.5t-204.5 65.5q-63 0 -132 -20.5t-69 -69.5v-66h-133v99q0 49 39 87t97.5 55t108.5 24.5t91 7.5q227 0 315 -104.5t88 -291.5v-493q0 -45 45 -45h86v-121h-141q-66 0 -94.5 29.5t-28.5 93.5l2 76h-4q2 0 -9 -22.5t-37 -56.5 t-62.5 -67t-99 -55.5t-134.5 -22.5q-141 0 -245.5 80.5t-104.5 225.5zM225 289q0 -78 60.5 -136.5t169.5 -58.5q139 0 227 119t88 264v47h-59q-55 0 -93 -2t-102.5 -8t-109 -21.5t-89.5 -40t-68.5 -66.5t-23.5 -97zM471 1196l-178 244h156l143 -244h-121z" />
<glyph unicode="&#xe1;" horiz-adv-x="1083" d="M82 281q0 354 631 354h57v12q0 160 -61.5 225.5t-204.5 65.5q-63 0 -132 -20.5t-69 -69.5v-66h-133v99q0 49 39 87t97.5 55t108.5 24.5t91 7.5q227 0 315 -104.5t88 -291.5v-493q0 -45 45 -45h86v-121h-141q-66 0 -94.5 29.5t-28.5 93.5l2 76h-4q2 0 -9 -22.5t-37 -56.5 t-62.5 -67t-99 -55.5t-134.5 -22.5q-141 0 -245.5 80.5t-104.5 225.5zM225 289q0 -78 60.5 -136.5t169.5 -58.5q139 0 227 119t88 264v47h-59q-55 0 -93 -2t-102.5 -8t-109 -21.5t-89.5 -40t-68.5 -66.5t-23.5 -97zM471 1196l143 244h156l-178 -244h-121z" />
<glyph unicode="&#xe2;" horiz-adv-x="1083" d="M82 281q0 354 631 354h57v12q0 160 -61.5 225.5t-204.5 65.5q-63 0 -132 -20.5t-69 -69.5v-66h-133v99q0 49 39 87t97.5 55t108.5 24.5t91 7.5q227 0 315 -104.5t88 -291.5v-493q0 -45 45 -45h86v-121h-141q-66 0 -94.5 29.5t-28.5 93.5l2 76h-4q2 0 -9 -22.5t-37 -56.5 t-62.5 -67t-99 -55.5t-134.5 -22.5q-141 0 -245.5 80.5t-104.5 225.5zM225 289q0 -78 60.5 -136.5t169.5 -58.5q139 0 227 119t88 264v47h-59q-55 0 -93 -2t-102.5 -8t-109 -21.5t-89.5 -40t-68.5 -66.5t-23.5 -97zM291 1196l170 244h143l170 -244h-129l-110 166h-5 l-110 -166h-129z" />
<glyph unicode="&#xe3;" horiz-adv-x="1083" d="M82 281q0 354 631 354h57v12q0 160 -61.5 225.5t-204.5 65.5q-63 0 -132 -20.5t-69 -69.5v-66h-133v99q0 49 39 87t97.5 55t108.5 24.5t91 7.5q227 0 315 -104.5t88 -291.5v-493q0 -45 45 -45h86v-121h-141q-66 0 -94.5 29.5t-28.5 93.5l2 76h-4q2 0 -9 -22.5t-37 -56.5 t-62.5 -67t-99 -55.5t-134.5 -22.5q-141 0 -245.5 80.5t-104.5 225.5zM225 289q0 -78 60.5 -136.5t169.5 -58.5q139 0 227 119t88 264v47h-59q-55 0 -93 -2t-102.5 -8t-109 -21.5t-89.5 -40t-68.5 -66.5t-23.5 -97zM209 1202q0 240 190 240q59 0 103.5 -37t81.5 -74t73 -37 q82 0 82 142h109q0 -240 -191 -240q-59 0 -104 37t-81 72.5t-75 35.5q-82 0 -82 -139h-106z" />
<glyph unicode="&#xe4;" horiz-adv-x="1083" d="M82 281q0 354 631 354h57v12q0 160 -61.5 225.5t-204.5 65.5q-63 0 -132 -20.5t-69 -69.5v-66h-133v99q0 49 39 87t97.5 55t108.5 24.5t91 7.5q227 0 315 -104.5t88 -291.5v-493q0 -45 45 -45h86v-121h-141q-66 0 -94.5 29.5t-28.5 93.5l2 76h-4q2 0 -9 -22.5t-37 -56.5 t-62.5 -67t-99 -55.5t-134.5 -22.5q-141 0 -245.5 80.5t-104.5 225.5zM225 289q0 -78 60.5 -136.5t169.5 -58.5q139 0 227 119t88 264v47h-59q-55 0 -93 -2t-102.5 -8t-109 -21.5t-89.5 -40t-68.5 -66.5t-23.5 -97zM627 1264v176h121v-176h-121zM319 1264v176h121v-176h-121 z" />
<glyph unicode="&#xe5;" horiz-adv-x="1083" d="M82 281q0 354 631 354h57v12q0 160 -61.5 225.5t-204.5 65.5q-63 0 -132 -20.5t-69 -69.5v-66h-133v99q0 49 39 87t97.5 55t108.5 24.5t91 7.5q227 0 315 -104.5t88 -291.5v-493q0 -45 45 -45h86v-121h-141q-66 0 -94.5 29.5t-28.5 93.5l2 76h-4q2 0 -9 -22.5t-37 -56.5 t-62.5 -67t-99 -55.5t-134.5 -22.5q-141 0 -245.5 80.5t-104.5 225.5zM225 289q0 -78 60.5 -136.5t169.5 -58.5q139 0 227 119t88 264v47h-59q-55 0 -93 -2t-102.5 -8t-109 -21.5t-89.5 -40t-68.5 -66.5t-23.5 -97zM532.5 1174q-63.5 0 -107.5 40.5t-44 104t44 104.5 t107.5 41t107.5 -41t44 -104.5t-44 -104t-107.5 -40.5zM532 1251q29 0 48.5 19.5t19.5 48.5q0 31 -19.5 50.5t-48 19.5t-48 -19.5t-19.5 -50.5q0 -29 18 -48.5t49 -19.5z" />
<glyph unicode="&#xe6;" horiz-adv-x="1783" d="M82 281q0 70 23.5 124t58.5 89.5t90 61.5t105.5 39t120 20.5t113.5 8.5t107 1h68v22q0 160 -61.5 225.5t-202.5 65.5q-66 0 -133.5 -20.5t-67.5 -69.5v-66h-133v99q0 86 104.5 130t231.5 44q289 0 356 -213h4q127 213 389 213q201 0 312.5 -132t111.5 -317l-4 -92h-772 q4 -197 111.5 -305.5t273.5 -108.5q170 0 301 119l8 8l66 -104q-16 -16 -47 -41t-130.5 -66t-203.5 -41q-158 0 -276.5 76t-176.5 211h-4q-6 -23 -19 -51.5t-46 -72.5t-73 -77.5t-106.5 -59.5t-144.5 -26q-150 0 -252 81.5t-102 224.5zM913 625h625q-6 152 -89 231.5 t-200 79.5q-131 0 -222 -80.5t-114 -230.5zM225 289q0 -80 61.5 -137.5t170.5 -57.5q139 0 226 120t87 265v35h-121q-82 0 -142.5 -6t-132 -26.5t-110.5 -69.5t-39 -123z" />
<glyph unicode="&#xe7;" horiz-adv-x="1081" d="M82 514q0 236 155.5 388.5t387.5 152.5q49 0 107.5 -11.5t118.5 -34t100 -68.5t40 -105v-93h-131v60q0 59 -79 93t-156 34q-170 0 -285 -116t-115 -300t118 -298t286 -114q186 0 317 131l15 15l65 -105l-16.5 -17t-49 -40t-82.5 -51.5t-114 -41t-146 -18.5l-16 -88 q66 -10 104.5 -48t38.5 -97q0 -84 -56 -123t-140 -39l-103 10v99q39 -12 86 -13q104 0 104.5 70t-116.5 70l-31 -2l39 170q-197 29 -321.5 173t-124.5 357z" />
<glyph unicode="&#xe8;" horiz-adv-x="1122" d="M82 514q0 246 146.5 393.5t361.5 147.5q205 0 318.5 -136.5t113.5 -338.5l-4 -70h-791q2 -188 118 -299t282 -111q170 0 299 117l10 10l68 -104q-16 -16 -48 -41t-131.5 -66t-203.5 -41q-231 0 -385 151.5t-154 387.5zM233 621h646q-6 154 -88 235.5t-203 81.5 q-133 0 -231.5 -83.5t-123.5 -233.5zM524 1196l-178 244h156l143 -244h-121z" />
<glyph unicode="&#xe9;" horiz-adv-x="1122" d="M82 514q0 246 146.5 393.5t361.5 147.5q205 0 318.5 -136.5t113.5 -338.5l-4 -70h-791q2 -188 118 -299t282 -111q170 0 299 117l10 10l68 -104q-16 -16 -48 -41t-131.5 -66t-203.5 -41q-231 0 -385 151.5t-154 387.5zM233 621h646q-6 154 -88 235.5t-203 81.5 q-133 0 -231.5 -83.5t-123.5 -233.5zM524 1196l144 244h155l-178 -244h-121z" />
<glyph unicode="&#xea;" horiz-adv-x="1122" d="M82 514q0 246 146.5 393.5t361.5 147.5q205 0 318.5 -136.5t113.5 -338.5l-4 -70h-791q2 -188 118 -299t282 -111q170 0 299 117l10 10l68 -104q-16 -16 -48 -41t-131.5 -66t-203.5 -41q-231 0 -385 151.5t-154 387.5zM233 621h646q-6 154 -88 235.5t-203 81.5 q-133 0 -231.5 -83.5t-123.5 -233.5zM344 1196l170 244h143l170 -244h-129l-110 166h-4l-111 -166h-129z" />
<glyph unicode="&#xeb;" horiz-adv-x="1122" d="M82 514q0 246 146.5 393.5t361.5 147.5q205 0 318.5 -136.5t113.5 -338.5l-4 -70h-791q2 -188 118 -299t282 -111q170 0 299 117l10 10l68 -104q-16 -16 -48 -41t-131.5 -66t-203.5 -41q-231 0 -385 151.5t-154 387.5zM233 621h646q-6 154 -88 235.5t-203 81.5 q-133 0 -231.5 -83.5t-123.5 -233.5zM680 1264v176h121v-176h-121zM373 1264v176h121v-176h-121z" />
<glyph unicode="&#xec;" horiz-adv-x="516" d="M190 125v739q0 45 -45 45h-86v121h146q66 0 95.5 -29.5t29.5 -95.5v-739q0 -45 45 -45h86v-121h-146q-66 0 -95.5 29.5t-29.5 95.5zM182 1196l-176 244h156l141 -244h-121z" />
<glyph unicode="&#xed;" horiz-adv-x="516" d="M190 125v739q0 45 -45 45h-86v121h146q66 0 95.5 -29.5t29.5 -95.5v-739q0 -45 45 -45h86v-121h-146q-66 0 -95.5 29.5t-29.5 95.5zM182 1196l144 244h155l-178 -244h-121z" />
<glyph unicode="&#xee;" horiz-adv-x="516" d="M190 125v739q0 45 -45 45h-86v121h146q66 0 95.5 -29.5t29.5 -95.5v-739q0 -45 45 -45h86v-121h-146q-66 0 -95.5 29.5t-29.5 95.5zM2 1196l172 244h141l172 -244h-129l-110 166h-4l-113 -166h-129z" />
<glyph unicode="&#xef;" horiz-adv-x="516" d="M190 125v739q0 45 -45 45h-86v121h146q66 0 95.5 -29.5t29.5 -95.5v-739q0 -45 45 -45h86v-121h-146q-66 0 -95.5 29.5t-29.5 95.5zM309 1264v176h121v-176h-121zM51 1264v176h123v-176h-123z" />
<glyph unicode="&#xf0;" horiz-adv-x="1157" d="M76 475q0 197 130 339t359 142q178 0 287 -102l8 -8h4q-70 199 -254 325l-360 -163l-27 98l277 129q-131 68 -291 104l41 119q236 -59 401 -158l269 121l26 -98l-198 -92q309 -242 309 -672q0 -106 -30 -206.5t-89 -186.5t-159.5 -138.5t-229.5 -52.5q-215 0 -344 149.5 t-129 350.5zM219 473q0 -152 90 -262.5t244 -110.5q176 0 268 132.5t92 299.5q0 133 -92 219.5t-241 86.5q-174 0 -267.5 -107.5t-93.5 -257.5z" />
<glyph unicode="&#xf1;" horiz-adv-x="1245" d="M178 0v864q0 45 -45 45h-86v121h143q125 0 125 -115v-47l-4 -73h4q37 94 142.5 177t267.5 83q186 0 266 -100.5t80 -299.5v-489q0 -45 45 -45h86v-121h-145q-66 0 -95.5 29.5t-29.5 95.5v493q0 145 -44 225.5t-179 80.5q-131 0 -235.5 -81t-139.5 -210q-16 -57 -17 -139 v-494h-139zM326 1202q0 240 190 240q59 0 103.5 -37t81 -74t73.5 -37q82 0 82 142h109q0 -240 -191 -240q-59 0 -104 37t-81 72.5t-75 35.5q-82 0 -82 -139h-106z" />
<glyph unicode="&#xf2;" horiz-adv-x="1251" d="M82 520q0 227 158.5 381t384.5 154q227 0 385.5 -153.5t158.5 -381.5q0 -231 -158.5 -388t-383.5 -157q-227 0 -386 157t-159 388zM225 520q0 -178 117 -299t285 -121q166 0 282.5 121t116.5 299q0 174 -116.5 291t-282.5 117q-168 0 -285 -117t-117 -291zM565 1196 l-178 244h156l143 -244h-121z" />
<glyph unicode="&#xf3;" horiz-adv-x="1251" d="M82 520q0 227 158.5 381t384.5 154q227 0 385.5 -153.5t158.5 -381.5q0 -231 -158.5 -388t-383.5 -157q-227 0 -386 157t-159 388zM225 520q0 -178 117 -299t285 -121q166 0 282.5 121t116.5 299q0 174 -116.5 291t-282.5 117q-168 0 -285 -117t-117 -291zM565 1196 l144 244h155l-178 -244h-121z" />
<glyph unicode="&#xf4;" horiz-adv-x="1251" d="M82 520q0 227 158.5 381t384.5 154q227 0 385.5 -153.5t158.5 -381.5q0 -231 -158.5 -388t-383.5 -157q-227 0 -386 157t-159 388zM225 520q0 -178 117 -299t285 -121q166 0 282.5 121t116.5 299q0 174 -116.5 291t-282.5 117q-168 0 -285 -117t-117 -291zM385 1196 l170 244h143l170 -244h-129l-110 166h-4l-111 -166h-129z" />
<glyph unicode="&#xf5;" horiz-adv-x="1251" d="M82 520q0 227 158.5 381t384.5 154q227 0 385.5 -153.5t158.5 -381.5q0 -231 -158.5 -388t-383.5 -157q-227 0 -386 157t-159 388zM225 520q0 -178 117 -299t285 -121q166 0 282.5 121t116.5 299q0 174 -116.5 291t-282.5 117q-168 0 -285 -117t-117 -291zM303 1202 q0 240 191 240q59 0 103 -37t81 -74t74 -37q82 0 82 142h108q0 -240 -190 -240q-59 0 -104.5 37t-81.5 72.5t-74 35.5q-82 0 -82 -139h-107z" />
<glyph unicode="&#xf6;" horiz-adv-x="1251" d="M82 520q0 227 158.5 381t384.5 154q227 0 385.5 -153.5t158.5 -381.5q0 -231 -158.5 -388t-383.5 -157q-227 0 -386 157t-159 388zM225 520q0 -178 117 -299t285 -121q166 0 282.5 121t116.5 299q0 174 -116.5 291t-282.5 117q-168 0 -285 -117t-117 -291zM721 1264v176 h121v-176h-121zM414 1264v176h121v-176h-121z" />
<glyph unicode="&#xf7;" d="M526 887v151h154v-151h-154zM102 522v119h1004v-119h-1004zM526 125v151h154v-151h-154z" />
<glyph unicode="&#xf8;" horiz-adv-x="1251" d="M201 -6l75 104q-195 162 -194 422q0 227 158.5 381t384.5 154q154 0 280 -76l80 113l84 -62l-80 -110q180 -158 180 -400q0 -231 -158.5 -388t-383.5 -157q-145 0 -265 66l-77 -109zM354 209l475 663q-94 55 -202 56q-168 0 -285 -117t-117 -291q0 -186 129 -311z M438 150q88 -49 189 -50q166 0 282.5 121t116.5 299q0 172 -119 287z" />
<glyph unicode="&#xf9;" horiz-adv-x="1234" d="M174 375v489q0 45 -45 45h-86v121h145q66 0 95.5 -28.5t29.5 -92.5v-497q0 -145 45 -225.5t181 -80.5q168 0 273.5 128t105.5 303v493h139v-864q0 -45 45 -45h86v-121h-141q-125 0 -125 115v47l4 74h-4q-39 -94 -144.5 -177.5t-257.5 -83.5q-180 0 -263 98.5t-83 301.5z M543 1196l-178 244h155l144 -244h-121z" />
<glyph unicode="&#xfa;" horiz-adv-x="1234" d="M174 375v489q0 45 -45 45h-86v121h145q66 0 95.5 -28.5t29.5 -92.5v-497q0 -145 45 -225.5t181 -80.5q168 0 273.5 128t105.5 303v493h139v-864q0 -45 45 -45h86v-121h-141q-125 0 -125 115v47l4 74h-4q-39 -94 -144.5 -177.5t-257.5 -83.5q-180 0 -263 98.5t-83 301.5z M543 1196l143 244h156l-178 -244h-121z" />
<glyph unicode="&#xfb;" horiz-adv-x="1234" d="M174 375v489q0 45 -45 45h-86v121h145q66 0 95.5 -28.5t29.5 -92.5v-497q0 -145 45 -225.5t181 -80.5q168 0 273.5 128t105.5 303v493h139v-864q0 -45 45 -45h86v-121h-141q-125 0 -125 115v47l4 74h-4q-39 -94 -144.5 -177.5t-257.5 -83.5q-180 0 -263 98.5t-83 301.5z M362 1196l170 244h144l170 -244h-129l-111 166h-4l-110 -166h-130z" />
<glyph unicode="&#xfc;" horiz-adv-x="1234" d="M174 375v489q0 45 -45 45h-86v121h145q66 0 95.5 -28.5t29.5 -92.5v-497q0 -145 45 -225.5t181 -80.5q168 0 273.5 128t105.5 303v493h139v-864q0 -45 45 -45h86v-121h-141q-125 0 -125 115v47l4 74h-4q-39 -94 -144.5 -177.5t-257.5 -83.5q-180 0 -263 98.5t-83 301.5z M698 1264v176h121v-176h-121zM391 1264v176h121v-176h-121z" />
<glyph unicode="&#xfd;" horiz-adv-x="1103" d="M82 -227q0 -4 18.5 -21.5t57.5 -37t78 -19.5q121 0 190 168l61 141l-362 858q-20 47 -72 47h-20v121h63q70 0 99.5 -21.5t58.5 -90.5l264 -644l37 -110h4q14 59 35 110l254 644q27 70 57.5 91t102.5 21h63v-121h-20q-53 0 -72 -47l-444 -1077q-41 -100 -118 -157.5 t-177 -57.5q-133 0 -220 94l-4 6zM487 1196l144 244h155l-178 -244h-121z" />
<glyph unicode="&#xfe;" horiz-adv-x="1196" d="M172 -410v1684q0 45 -45 45h-86v121h145q66 0 95.5 -30t29.5 -95v-367l-4 -90h4q100 197 346 197q209 0 331 -148.5t122 -390.5t-122 -391.5t-331 -149.5q-74 0 -136 19.5t-99 48.5t-63.5 57.5t-36.5 46.5l-11 21h-4q4 -37 4 -90v-488h-139zM307 514q0 -211 96.5 -312.5 t239.5 -101.5q145 0 234.5 114t89.5 302q0 186 -89.5 299t-234.5 113q-147 0 -241.5 -100.5t-94.5 -313.5z" />
<glyph unicode="&#xff;" horiz-adv-x="1103" d="M82 -227q0 -4 18.5 -21.5t57.5 -37t78 -19.5q121 0 190 168l61 141l-362 858q-20 47 -72 47h-20v121h63q70 0 99.5 -21.5t58.5 -90.5l264 -644l37 -110h4q14 59 35 110l254 644q27 70 57.5 91t102.5 21h63v-121h-20q-53 0 -72 -47l-444 -1077q-41 -100 -118 -157.5 t-177 -57.5q-133 0 -220 94l-4 6zM643 1264v176h121v-176h-121zM336 1264v176h121v-176h-121z" />
<glyph unicode="&#x100;" horiz-adv-x="1345" d="M25 0v127h26q57 0 74 45l471 1268h154l471 -1268q16 -45 73 -45h25v-127h-66q-78 0 -110.5 22.5t-59.5 96.5l-125 340h-571l-127 -340q-29 -74 -60.5 -96.5t-107.5 -22.5h-67zM426 584h494l-191 514l-55 186h-4q-31 -119 -56 -186zM422 1608v110h504v-110h-504z" />
<glyph unicode="&#x101;" horiz-adv-x="1083" d="M82 281q0 354 631 354h57v12q0 160 -61.5 225.5t-204.5 65.5q-63 0 -132 -20.5t-69 -69.5v-66h-133v99q0 49 39 87t97.5 55t108.5 24.5t91 7.5q227 0 315 -104.5t88 -291.5v-493q0 -45 45 -45h86v-121h-141q-66 0 -94.5 29.5t-28.5 93.5l2 76h-4q2 0 -9 -22.5t-37 -56.5 t-62.5 -67t-99 -55.5t-134.5 -22.5q-141 0 -245.5 80.5t-104.5 225.5zM225 289q0 -78 60.5 -136.5t169.5 -58.5q139 0 227 119t88 264v47h-59q-55 0 -93 -2t-102.5 -8t-109 -21.5t-89.5 -40t-68.5 -66.5t-23.5 -97zM281 1264v110h503v-110h-503z" />
<glyph unicode="&#x102;" horiz-adv-x="1345" d="M25 0v127h26q57 0 74 45l471 1268h154l471 -1268q16 -45 73 -45h25v-127h-66q-78 0 -110.5 22.5t-59.5 96.5l-125 340h-571l-127 -340q-29 -74 -60.5 -96.5t-107.5 -22.5h-67zM426 584h494l-191 514l-55 186h-4q-31 -119 -56 -186zM674 1534q-94 0 -164 58.5t-70 160.5 v31h107v-27q0 -63 35.5 -95t91.5 -32q53 0 89 32t36 95v27h106v-31q0 -102 -68.5 -160.5t-162.5 -58.5z" />
<glyph unicode="&#x103;" horiz-adv-x="1083" d="M82 281q0 354 631 354h57v12q0 160 -61.5 225.5t-204.5 65.5q-63 0 -132 -20.5t-69 -69.5v-66h-133v99q0 49 39 87t97.5 55t108.5 24.5t91 7.5q227 0 315 -104.5t88 -291.5v-493q0 -45 45 -45h86v-121h-141q-66 0 -94.5 29.5t-28.5 93.5l2 76h-4q2 0 -9 -22.5t-37 -56.5 t-62.5 -67t-99 -55.5t-134.5 -22.5q-141 0 -245.5 80.5t-104.5 225.5zM225 289q0 -78 60.5 -136.5t169.5 -58.5q139 0 227 119t88 264v47h-59q-55 0 -93 -2t-102.5 -8t-109 -21.5t-89.5 -40t-68.5 -66.5t-23.5 -97zM532.5 1190q-94.5 0 -164 58.5t-69.5 160.5v31h107v-27 q0 -63 35.5 -95t90.5 -32q53 0 89 32t36 95v27h107v-31q0 -102 -68.5 -160.5t-163 -58.5z" />
<glyph unicode="&#x104;" horiz-adv-x="1345" d="M25 0v127h26q57 0 74 45l471 1268h154l471 -1268q16 -45 73 -45h25v-127q-147 -119 -148 -203q0 -41 32 -66.5t63 -29.5l32 -6l-32 -115q-8 0 -23.5 2t-54.5 14.5t-67.5 31t-53.5 55t-25 86.5q0 129 142 235v4q-39 8 -59.5 31.5t-41.5 79.5l-125 340h-571l-127 -340 q-29 -74 -60.5 -96.5t-107.5 -22.5h-67zM426 584h494l-191 514l-55 186h-4q-31 -119 -56 -186z" />
<glyph unicode="&#x105;" horiz-adv-x="1083" d="M82 281q0 354 631 354h57v12q0 158 -61.5 224.5t-204.5 66.5q-63 0 -132 -21.5t-69 -68.5v-66h-133v99q0 51 38 88t96 54t108.5 24.5t93.5 7.5q227 0 315 -104.5t88 -291.5v-493q0 -45 45 -45h86v-121q-150 -115 -149 -203q0 -41 31.5 -66.5t64.5 -29.5l31 -6l-31 -115 q-8 0 -23.5 2t-54.5 14.5t-68.5 31t-54 55t-24.5 86.5q0 125 135 227v4h-23q-100 0 -100 115v14l4 70h-4q-2 -8 -9 -23.5t-35 -54.5t-63.5 -67.5t-102 -53.5t-146.5 -25q-139 0 -237.5 85.5t-98.5 220.5zM225 289q0 -78 60.5 -136.5t169.5 -58.5q139 0 227 119t88 264v47 h-59q-55 0 -93 -2t-102.5 -8t-109 -21.5t-89.5 -40t-68.5 -66.5t-23.5 -97z" />
<glyph unicode="&#x106;" horiz-adv-x="1421" d="M78 731q0 311 203.5 522t506.5 211q82 0 171.5 -17t174.5 -52t139 -96.5t54 -139.5v-119h-135v80q0 94 -129 151.5t-270 57.5q-242 0 -404 -169t-162 -429t164 -440t408 -180q250 0 438 170l33 32l82 -104q-8 -10 -23.5 -25.5t-69 -55.5t-114 -70.5t-154.5 -56.5 t-194 -26q-313 0 -516 218.5t-203 537.5zM723 1540l143 244h156l-178 -244h-121z" />
<glyph unicode="&#x107;" horiz-adv-x="1081" d="M82 514q0 236 155.5 388.5t387.5 152.5q49 0 107.5 -11.5t118.5 -34t100 -68.5t40 -105v-93h-131v60q0 59 -79 93t-156 34q-170 0 -285 -116t-115 -300t118 -298t286 -114q186 0 317 131l15 15l65 -105l-16.5 -17t-49 -41t-81.5 -51.5t-113 -40t-143 -18.5 q-233 0 -387 150.5t-154 388.5zM535 1196l143 244h156l-179 -244h-120z" />
<glyph unicode="&#x108;" horiz-adv-x="1421" d="M78 731q0 311 203.5 522t506.5 211q82 0 171.5 -17t174.5 -52t139 -96.5t54 -139.5v-119h-135v80q0 94 -129 151.5t-270 57.5q-242 0 -404 -169t-162 -429t164 -440t408 -180q250 0 438 170l33 32l82 -104q-8 -10 -23.5 -25.5t-69 -55.5t-114 -70.5t-154.5 -56.5 t-194 -26q-313 0 -516 218.5t-203 537.5zM543 1540l170 244h143l170 -244h-129l-111 166h-4l-110 -166h-129z" />
<glyph unicode="&#x109;" horiz-adv-x="1081" d="M82 514q0 236 155.5 388.5t387.5 152.5q49 0 107.5 -11.5t118.5 -34t100 -68.5t40 -105v-93h-131v60q0 59 -79 93t-156 34q-170 0 -285 -116t-115 -300t118 -298t286 -114q186 0 317 131l15 15l65 -105l-16.5 -17t-49 -41t-81.5 -51.5t-113 -40t-143 -18.5 q-233 0 -387 150.5t-154 388.5zM354 1196l170 244h144l170 -244h-129l-111 166h-4l-111 -166h-129z" />
<glyph unicode="&#x10a;" horiz-adv-x="1421" d="M78 731q0 311 203.5 522t506.5 211q82 0 171.5 -17t174.5 -52t139 -96.5t54 -139.5v-119h-135v80q0 94 -129 151.5t-270 57.5q-242 0 -404 -169t-162 -429t164 -440t408 -180q250 0 438 170l33 32l82 -104q-8 -10 -23.5 -25.5t-69 -55.5t-114 -70.5t-154.5 -56.5 t-194 -26q-313 0 -516 218.5t-203 537.5zM717 1608v176h135v-176h-135z" />
<glyph unicode="&#x10b;" horiz-adv-x="1081" d="M82 514q0 236 155.5 388.5t387.5 152.5q49 0 107.5 -11.5t118.5 -34t100 -68.5t40 -105v-93h-131v60q0 59 -79 93t-156 34q-170 0 -285 -116t-115 -300t118 -298t286 -114q186 0 317 131l15 15l65 -105l-16.5 -17t-49 -41t-81.5 -51.5t-113 -40t-143 -18.5 q-233 0 -387 150.5t-154 388.5zM528 1264v176h136v-176h-136z" />
<glyph unicode="&#x10c;" horiz-adv-x="1421" d="M78 731q0 311 203.5 522t506.5 211q82 0 171.5 -17t174.5 -52t139 -96.5t54 -139.5v-119h-135v80q0 94 -129 151.5t-270 57.5q-242 0 -404 -169t-162 -429t164 -440t408 -180q250 0 438 170l33 32l82 -104q-8 -10 -23.5 -25.5t-69 -55.5t-114 -70.5t-154.5 -56.5 t-194 -26q-313 0 -516 218.5t-203 537.5zM713 1540l-172 244h131l110 -164h4l111 164h129l-172 -244h-141z" />
<glyph unicode="&#x10d;" horiz-adv-x="1081" d="M82 514q0 236 155.5 388.5t387.5 152.5q49 0 107.5 -11.5t118.5 -34t100 -68.5t40 -105v-93h-131v60q0 59 -79 93t-156 34q-170 0 -285 -116t-115 -300t118 -298t286 -114q186 0 317 131l15 15l65 -105l-16.5 -17t-49 -41t-81.5 -51.5t-113 -40t-143 -18.5 q-233 0 -387 150.5t-154 388.5zM524 1196l-172 244h131l111 -164h4l111 164h129l-172 -244h-142z" />
<glyph unicode="&#x10e;" horiz-adv-x="1464" d="M219 125v1188h-133v127h578q330 0 526 -191.5t196 -527.5q0 -340 -196.5 -530.5t-525.5 -190.5h-320q-66 0 -95.5 29.5t-29.5 95.5zM362 172q0 -45 46 -45h241q270 0 429 154.5t159 439.5q0 283 -158.5 437.5t-429.5 154.5h-287v-1141zM645 1540l-172 244h131l111 -164h4 l110 164h129l-172 -244h-141z" />
<glyph unicode="&#x10f;" horiz-adv-x="1359" d="M86 516q0 242 129 390.5t334 148.5q207 0 315 -158l21 -35h4q-4 35 -4 78v334q0 45 -45 45h-86v121h145q66 0 95.5 -30t29.5 -95v-1149q0 -45 45 -45h86v-121h-143q-123 0 -123 115l4 65h-4l-11 -22q-7 -14 -36 -49t-66 -62t-101.5 -49.5t-139.5 -22.5q-205 0 -327 149.5 t-122 391.5zM555 100q141 0 237.5 104.5t96.5 311.5q0 170 -86 292t-242 122q-141 0 -236.5 -112.5t-95.5 -301t90.5 -302.5t235.5 -114zM1151 1440h127q14 -49 14 -99q0 -74 -49 -182h-108q39 98 39 164q0 58 -23 117z" />
<glyph unicode="&#x110;" horiz-adv-x="1464" d="M219 125v537h-102v122h102v529h-133v127h578q330 0 526 -191.5t196 -527.5q0 -340 -196.5 -530.5t-525.5 -190.5h-320q-66 0 -95.5 29.5t-29.5 95.5zM362 172q0 -45 46 -45h241q270 0 429 154.5t159 439.5q0 283 -158.5 437.5t-429.5 154.5h-287v-529h336v-122h-336v-490 z" />
<glyph unicode="&#x111;" horiz-adv-x="1204" d="M535 -25q-205 0 -327 149.5t-122 391.5t129 390.5t334 148.5q207 0 315 -158l21 -35h4q-4 35 -4 78v219h-269v105h269v176h139v-176h164v-105h-164v-993q0 -45 45 -45h86v-121h-143q-123 0 -123 115l4 65h-4l-11 -22q-7 -14 -36 -49t-66 -62t-101 -49.5t-140 -22.5z M555 100q141 0 237.5 104.5t96.5 311.5q0 170 -86 292t-242 122q-141 0 -236.5 -112.5t-95.5 -301t90.5 -302.5t235.5 -114z" />
<glyph unicode="&#x112;" horiz-adv-x="1142" d="M219 125v1188h-133v127h823q66 0 95.5 -30t29.5 -95v-144h-135v97q0 45 -45 45h-492v-525h541v-126h-541v-490q0 -45 46 -45h505q45 0 45 45v96h134v-143q0 -66 -30 -95.5t-95 -29.5h-623q-66 0 -95.5 29.5t-29.5 95.5zM350 1608v110h504v-110h-504z" />
<glyph unicode="&#x113;" horiz-adv-x="1122" d="M82 514q0 246 146.5 393.5t361.5 147.5q205 0 318.5 -136.5t113.5 -338.5l-4 -70h-791q2 -188 118 -299t282 -111q170 0 299 117l10 10l68 -104q-16 -16 -48 -41t-131.5 -66t-203.5 -41q-231 0 -385 151.5t-154 387.5zM233 621h646q-6 154 -88 235.5t-203 81.5 q-133 0 -231.5 -83.5t-123.5 -233.5zM334 1264v110h504v-110h-504z" />
<glyph unicode="&#x114;" horiz-adv-x="1142" d="M219 125v1188h-133v127h823q66 0 95.5 -30t29.5 -95v-144h-135v97q0 45 -45 45h-492v-525h541v-126h-541v-490q0 -45 46 -45h505q45 0 45 45v96h134v-143q0 -66 -30 -95.5t-95 -29.5h-623q-66 0 -95.5 29.5t-29.5 95.5zM604 1534q-94 0 -163.5 58.5t-69.5 160.5v31h106 v-27q0 -63 36 -95t91 -32q53 0 89 32t36 95v27h107v-31q0 -102 -69 -160.5t-163 -58.5z" />
<glyph unicode="&#x115;" horiz-adv-x="1122" d="M82 514q0 246 146.5 393.5t361.5 147.5q205 0 318.5 -136.5t113.5 -338.5l-4 -70h-791q2 -188 118 -299t282 -111q170 0 299 117l10 10l68 -104q-16 -16 -48 -41t-131.5 -66t-203.5 -41q-231 0 -385 151.5t-154 387.5zM233 621h646q-6 154 -88 235.5t-203 81.5 q-133 0 -231.5 -83.5t-123.5 -233.5zM586 1190q-94 0 -164 58.5t-70 160.5v31h107v-27q0 -63 35.5 -95t91.5 -32q53 0 89 32t36 95v27h106v-31q0 -102 -68.5 -160.5t-162.5 -58.5z" />
<glyph unicode="&#x116;" horiz-adv-x="1142" d="M219 125v1188h-133v127h823q66 0 95.5 -30t29.5 -95v-144h-135v97q0 45 -45 45h-492v-525h541v-126h-541v-490q0 -45 46 -45h505q45 0 45 45v96h134v-143q0 -66 -30 -95.5t-95 -29.5h-623q-66 0 -95.5 29.5t-29.5 95.5zM535 1608v176h135v-176h-135z" />
<glyph unicode="&#x117;" horiz-adv-x="1122" d="M82 514q0 246 146.5 393.5t361.5 147.5q205 0 318.5 -136.5t113.5 -338.5l-4 -70h-791q2 -188 118 -299t282 -111q170 0 299 117l10 10l68 -104q-16 -16 -48 -41t-131.5 -66t-203.5 -41q-231 0 -385 151.5t-154 387.5zM233 621h646q-6 154 -88 235.5t-203 81.5 q-133 0 -231.5 -83.5t-123.5 -233.5zM518 1264v176h135v-176h-135z" />
<glyph unicode="&#x118;" horiz-adv-x="1142" d="M219 125v1188h-133v127h823q66 0 95.5 -30t29.5 -95v-144h-135v97q0 45 -45 45h-492v-525h541v-126h-541v-490q0 -45 46 -45h505q45 0 45 45v96h134v-143q0 -70 -41 -107q-6 -4 -30 -23.5t-34 -28.5l-32 -27q-22 -18 -31 -33l-24 -33q-13 -18 -18 -36.5t-5 -39.5 q0 -41 31.5 -66.5t62.5 -29.5l33 -6l-31 -115q-8 0 -23.5 2t-54.5 14.5t-68.5 31t-54 55t-24.5 86.5q0 129 133 227v4h-537q-66 0 -95.5 29.5t-29.5 95.5z" />
<glyph unicode="&#x119;" horiz-adv-x="1122" d="M82 514q0 246 146.5 393.5t361.5 147.5q205 0 318.5 -136.5t113.5 -338.5l-4 -70h-791q2 -186 118 -298t282 -112q170 0 299 117l10 10l68 -104q-20 -18 -108.5 -82t-138.5 -122t-50 -122q0 -41 31.5 -66.5t64.5 -29.5l31 -6l-31 -115q-8 0 -23.5 2t-54.5 14.5t-68.5 31 t-54 55t-24.5 86.5q0 106 110 208v5q-31 -6 -67 -7q-231 0 -385 151.5t-154 387.5zM233 621h646q-8 154 -89 235.5t-202 81.5q-133 0 -231.5 -83.5t-123.5 -233.5z" />
<glyph unicode="&#x11a;" horiz-adv-x="1142" d="M219 125v1188h-133v127h823q66 0 95.5 -30t29.5 -95v-144h-135v97q0 45 -45 45h-492v-525h541v-126h-541v-490q0 -45 46 -45h505q45 0 45 45v96h134v-143q0 -66 -30 -95.5t-95 -29.5h-623q-66 0 -95.5 29.5t-29.5 95.5zM530 1540l-172 244h131l111 -164h4l111 164h129 l-172 -244h-142z" />
<glyph unicode="&#x11b;" horiz-adv-x="1122" d="M82 514q0 246 146.5 393.5t361.5 147.5q205 0 318.5 -136.5t113.5 -338.5l-4 -70h-791q2 -188 118 -299t282 -111q170 0 299 117l10 10l68 -104q-16 -16 -48 -41t-131.5 -66t-203.5 -41q-231 0 -385 151.5t-154 387.5zM233 621h646q-6 154 -88 235.5t-203 81.5 q-133 0 -231.5 -83.5t-123.5 -233.5zM514 1196l-172 244h131l111 -164h4l110 164h129l-172 -244h-141z" />
<glyph unicode="&#x11c;" horiz-adv-x="1495" d="M80 723q0 311 207 526t512 215q285 0 475 -151l29 -25l-84 -106q-18 16 -52 40.5t-143 65.5t-223 41q-244 0 -408 -173t-164 -433q0 -264 162 -438t408 -174q80 0 155.5 21.5t128 52t92 62.5t58.5 52l20 23v178q0 45 -45 45h-88v127h144q66 0 95.5 -30t29.5 -95v-547 h-132v109l3 61h-5q-6 -8 -19 -21.5t-58 -46t-96.5 -58.5t-132.5 -47.5t-165 -21.5q-297 0 -500.5 213t-203.5 535zM551 1540l170 244h143l170 -244h-129l-110 166h-4l-111 -166h-129z" />
<glyph unicode="&#x11d;" horiz-adv-x="1185" d="M86 534.5q0 233.5 121 377t325 143.5q78 0 141.5 -18.5t99.5 -44t60.5 -51.5t32.5 -44l8 -18h5v39q0 113 116 112h144v-121h-84q-45 0 -45 -45v-839q0 -229 -142.5 -342t-353.5 -113q-176 0 -336 82l53 117q127 -72 279 -72q162 0 261 80t99 243v91l2 73h-4 q-96 -178 -323 -178q-207 0 -333 147.5t-126 381zM565 131q137 0 222 95.5t85 308.5q0 393 -325 393q-150 0 -234 -103.5t-84 -288t92 -295t244 -110.5zM350 1196l170 244h144l170 -244h-129l-111 166h-4l-111 -166h-129z" />
<glyph unicode="&#x11e;" horiz-adv-x="1495" d="M80 723q0 311 207 526t512 215q285 0 475 -151l29 -25l-84 -106q-18 16 -52 40.5t-143 65.5t-223 41q-244 0 -408 -173t-164 -433q0 -264 162 -438t408 -174q80 0 155.5 21.5t128 52t92 62.5t58.5 52l20 23v178q0 45 -45 45h-88v127h144q66 0 95.5 -30t29.5 -95v-547 h-132v109l3 61h-5q-6 -8 -19 -21.5t-58 -46t-96.5 -58.5t-132.5 -47.5t-165 -21.5q-297 0 -500.5 213t-203.5 535zM794.5 1534q-94.5 0 -164 58.5t-69.5 160.5v31h107v-27q0 -63 35.5 -95t91.5 -32q53 0 89 32t36 95v27h106v-31q0 -102 -68.5 -160.5t-163 -58.5z" />
<glyph unicode="&#x11f;" horiz-adv-x="1185" d="M86 534.5q0 233.5 121 377t325 143.5q78 0 141.5 -18.5t99.5 -44t60.5 -51.5t32.5 -44l8 -18h5v39q0 113 116 112h144v-121h-84q-45 0 -45 -45v-839q0 -229 -142.5 -342t-353.5 -113q-176 0 -336 82l53 117q127 -72 279 -72q162 0 261 80t99 243v91l2 73h-4 q-96 -178 -323 -178q-207 0 -333 147.5t-126 381zM565 131q137 0 222 95.5t85 308.5q0 393 -325 393q-150 0 -234 -103.5t-84 -288t92 -295t244 -110.5zM594 1190q-94 0 -164 58.5t-70 160.5v31h107v-27q0 -63 36 -95t91 -32q53 0 89 32t36 95v27h106v-31 q0 -102 -68.5 -160.5t-162.5 -58.5z" />
<glyph unicode="&#x120;" horiz-adv-x="1495" d="M80 723q0 311 207 526t512 215q285 0 475 -151l29 -25l-84 -106q-18 16 -52 40.5t-143 65.5t-223 41q-244 0 -408 -173t-164 -433q0 -264 162 -438t408 -174q80 0 155.5 21.5t128 52t92 62.5t58.5 52l20 23v178q0 45 -45 45h-88v127h144q66 0 95.5 -30t29.5 -95v-547 h-132v109l3 61h-5q-6 -8 -19 -21.5t-58 -46t-96.5 -58.5t-132.5 -47.5t-165 -21.5q-297 0 -500.5 213t-203.5 535zM727 1608v176h135v-176h-135z" />
<glyph unicode="&#x121;" horiz-adv-x="1185" d="M86 534.5q0 233.5 121 377t325 143.5q78 0 141.5 -18.5t99.5 -44t60.5 -51.5t32.5 -44l8 -18h5v39q0 113 116 112h144v-121h-84q-45 0 -45 -45v-839q0 -229 -142.5 -342t-353.5 -113q-176 0 -336 82l53 117q127 -72 279 -72q162 0 261 80t99 243v91l2 73h-4 q-96 -178 -323 -178q-207 0 -333 147.5t-126 381zM565 131q137 0 222 95.5t85 308.5q0 393 -325 393q-150 0 -234 -103.5t-84 -288t92 -295t244 -110.5zM524 1264v176h135v-176h-135z" />
<glyph unicode="&#x122;" horiz-adv-x="1495" d="M80 723q0 311 207 526t512 215q285 0 475 -151l29 -25l-84 -106q-18 16 -52 40.5t-143 65.5t-223 41q-244 0 -408 -173t-164 -433q0 -264 162 -438t408 -174q80 0 155.5 21.5t128 52t92 62.5t58.5 52l20 23v178q0 45 -45 45h-88v127h144q66 0 95.5 -30t29.5 -95v-547 h-132v109l3 61h-5q-6 -8 -19 -21.5t-58 -46t-96.5 -58.5t-132.5 -47.5t-165 -21.5q-297 0 -500.5 213t-203.5 535zM711 -129h127q14 -49 14 -98q0 -74 -49 -183h-109q39 98 39 164q1 58 -22 117z" />
<glyph unicode="&#x123;" horiz-adv-x="1185" d="M86 534.5q0 233.5 121 377t325 143.5q78 0 141.5 -18.5t99.5 -44t60.5 -51.5t32.5 -44l8 -18h5v39q0 113 116 112h144v-121h-84q-45 0 -45 -45v-839q0 -229 -142.5 -342t-353.5 -113q-176 0 -336 82l53 117q127 -72 279 -72q162 0 261 80t99 243v91l2 73h-4 q-96 -178 -323 -178q-207 0 -333 147.5t-126 381zM565 131q137 0 222 95.5t85 308.5q0 393 -325 393q-150 0 -234 -103.5t-84 -288t92 -295t244 -110.5zM637 1159h-127q-14 49 -14 98q0 74 49 183h108q-39 -96 -39 -164q0 -58 23 -117z" />
<glyph unicode="&#x124;" horiz-adv-x="1550" d="M219 0v1268q0 45 -45 45h-88v127h152q66 0 95 -30t29 -95v-531h828v531q0 66 28.5 95.5t94.5 29.5h153v-127h-88q-45 0 -45 -45v-1268h-143v657h-828v-657h-143zM535 1540l170 244h143l170 -244h-129l-111 166h-4l-110 -166h-129z" />
<glyph unicode="&#x125;" horiz-adv-x="1239" d="M172 0v1274q0 45 -45 45h-86v121h145q66 0 95.5 -29t29.5 -92v-436l-4 -84h4q37 92 144.5 174t263.5 82q186 0 266 -100.5t80 -299.5v-489q0 -45 45 -45h86v-121h-145q-66 0 -95.5 29.5t-29.5 95.5v493q0 70 -7.5 118t-30 94.5t-69.5 70t-119 23.5q-131 0 -234.5 -82 t-137.5 -211q-16 -55 -17 -137v-494h-139zM410 1540l170 244h143l170 -244h-129l-111 166h-4l-110 -166h-129z" />
<glyph unicode="&#x126;" horiz-adv-x="1550" d="M219 0v1049h-135v110h135v281h143v-281h828v281h143v-281h133v-110h-133v-1049h-143v657h-828v-657h-143zM362 784h828v265h-828v-265z" />
<glyph unicode="&#x127;" horiz-adv-x="1239" d="M172 0v1159h-162v105h162v176h139v-176h269v-105h-269v-276l-4 -84h4q12 33 41 72.5t77 82.5t125 72t165 29q186 0 266 -100.5t80 -299.5v-489q0 -45 45 -45h86v-121h-145q-66 0 -95.5 29.5t-29.5 95.5v493q0 70 -7.5 117t-30 94.5t-69.5 71t-119 23.5 q-168 0 -278.5 -124t-110.5 -306v-494h-139z" />
<glyph unicode="&#x128;" horiz-adv-x="600" d="M94 0v127h135v1186h-135v127h412v-127h-137v-1186h137v-127h-412zM-25 1546q0 240 191 240q59 0 103 -37t81 -74t74 -37q82 0 82 142h108q0 -240 -190 -240q-59 0 -104.5 37t-81 73t-74.5 36q-82 0 -82 -140h-107z" />
<glyph unicode="&#x129;" horiz-adv-x="516" d="M190 125v739q0 45 -45 45h-86v121h146q66 0 95.5 -29.5t29.5 -95.5v-739q0 -45 45 -45h86v-121h-146q-66 0 -95.5 29.5t-29.5 95.5zM-33 1202q0 240 170 240q49 0 87 -36t65.5 -72t52.5 -36q70 0 70 138h102q0 -240 -170 -240q-49 0 -87 36t-65.5 71.5t-50.5 35.5 q-70 0 -69 -137h-105z" />
<glyph unicode="&#x12a;" horiz-adv-x="600" d="M94 0v127h135v1186h-135v127h412v-127h-137v-1186h137v-127h-412zM47 1608v110h504v-110h-504z" />
<glyph unicode="&#x12b;" horiz-adv-x="516" d="M190 125v739q0 45 -45 45h-86v121h146q66 0 95.5 -29.5t29.5 -95.5v-739q0 -45 45 -45h86v-121h-146q-66 0 -95.5 29.5t-29.5 95.5zM27 1264v110h438v-110h-438z" />
<glyph unicode="&#x12c;" horiz-adv-x="600" d="M94 0v127h135v1186h-135v127h412v-127h-137v-1186h137v-127h-412zM299 1534q-94 0 -163.5 58.5t-69.5 160.5v31h106v-27q0 -63 36 -95t91 -32q53 0 89 32t36 95v27h106v-31q0 -102 -68.5 -160.5t-162.5 -58.5z" />
<glyph unicode="&#x12d;" horiz-adv-x="516" d="M190 125v739q0 45 -45 45h-86v121h146q66 0 95.5 -29.5t29.5 -95.5v-739q0 -45 45 -45h86v-121h-146q-66 0 -95.5 29.5t-29.5 95.5zM246 1190q-94 0 -164 58.5t-70 160.5v31h107v-27q0 -63 35.5 -95t91.5 -32q53 0 89 32t36 95v27h106v-31q0 -102 -68.5 -160.5 t-162.5 -58.5z" />
<glyph unicode="&#x12e;" horiz-adv-x="600" d="M94 0v127h135v1186h-135v127h412v-127h-137v-1186h137v-127q-150 -115 -150 -203q0 -41 32 -66.5t63 -29.5l32 -6l-30 -115q-8 0 -23.5 2t-54.5 14.5t-69 31t-54.5 55t-24.5 86.5q0 129 133 227v4h-266z" />
<glyph unicode="&#x12f;" horiz-adv-x="514" d="M184 1264v176h135v-176h-135zM328 905v-739q0 -45 45 -45h86v-121q-147 -119 -148 -203q0 -41 32 -66.5t63 -29.5l32 -6l-32 -115q-8 0 -23.5 2t-54.5 14.5t-68 31t-53.5 55t-24.5 86.5q0 127 133 227v4h-22q-59 0 -82 43t-23 127v694q0 45 -45 45h-86v121h146 q66 0 95.5 -29.5t29.5 -95.5z" />
<glyph unicode="&#x130;" horiz-adv-x="600" d="M94 0v127h135v1186h-135v127h412v-127h-137v-1186h137v-127h-412zM231 1608v176h136v-176h-136z" />
<glyph unicode="&#x131;" horiz-adv-x="516" d="M190 125v739q0 45 -45 45h-86v121h146q66 0 95.5 -29.5t29.5 -95.5v-739q0 -45 45 -45h86v-121h-146q-66 0 -95.5 29.5t-29.5 95.5z" />
<glyph unicode="&#x132;" horiz-adv-x="1314" d="M698 -10v133q301 0 301 344v801q0 45 -45 45h-243v127h307q66 0 95.5 -30t29.5 -95v-848q-1 -477 -445 -477zM94 0v127h135v1186h-135v127h412v-127h-137v-1186h137v-127h-412z" />
<glyph unicode="&#x133;" horiz-adv-x="1044" d="M184 1264v176h135v-176h-135zM188 125v739q0 45 -45 45h-86v121h146q66 0 95.5 -29.5t29.5 -95.5v-739q0 -45 45 -45h86v-121h-146q-66 0 -95.5 29.5t-29.5 95.5zM727 1264v176h135v-176h-135zM451 -295q18 -2 45 -2q37 0 71.5 9t74.5 34t64.5 82t24.5 139v897 q0 45 -45 45h-86v121h145q66 0 95.5 -29.5t29.5 -95.5v-944q0 -121 -37.5 -203t-100 -117.5t-115 -49t-107.5 -13.5l-59 6v121z" />
<glyph unicode="&#x134;" horiz-adv-x="1034" d="M49 403v58h144v-49q0 -158 76.5 -229.5t187.5 -71.5q109 0 184.5 71.5t75.5 225.5v860q0 45 -45 45h-357v127h420q66 0 95.5 -30t29.5 -95v-912q0 -217 -118.5 -322.5t-286.5 -105.5t-287 106.5t-119 321.5zM332 1540l170 244h143l170 -244h-129l-111 166h-4l-110 -166 h-129z" />
<glyph unicode="&#x135;" horiz-adv-x="546" d="M12 1196l172 244h142l172 -244h-129l-115 168l-113 -168h-129zM-43 -295q18 -4 45 -4q37 0 72 9t74.5 34t63.5 82t24 139v901q0 45 -48 45h-84v119h144q68 0 96.5 -26.5t28.5 -92.5v-950q0 -98 -27 -171t-64.5 -111.5t-90 -63.5t-92.5 -31t-83 -6l-59 6v121z" />
<glyph unicode="&#x136;" horiz-adv-x="1208" d="M219 0v1268q0 45 -45 45h-88v127h152q66 0 95 -30t29 -95v-500h173q90 0 120 51l349 574h163l-370 -604q-37 -59 -74 -80v-4q35 -12 70 -82l249 -496q14 -31 37 -39t68 -8h41v-127h-76q-90 0 -127 19.5t-72 89.5l-262 526q-25 53 -131 53h-158v-688h-143zM573 -129h127 q14 -49 15 -98q0 -74 -49 -183h-109q39 98 39 164q0 58 -23 117z" />
<glyph unicode="&#x137;" horiz-adv-x="1019" d="M172 0v1274q0 45 -45 45h-86v121h145q68 0 96.5 -27t28.5 -92v-684h107q78 0 117 49l264 344h170l-297 -377q-23 -29 -42.5 -47t-27.5 -22l-8 -4v-5q31 -14 63 -75l187 -334q14 -27 33.5 -36t60.5 -9h55v-121h-96q-78 0 -110.5 19.5t-67.5 82.5l-205 369q-25 45 -108 45 h-95v-516h-139zM473 -129h127q14 -49 14 -98q0 -74 -49 -183h-108q39 98 39 164q0 58 -23 117z" />
<glyph unicode="&#x138;" horiz-adv-x="1019" d="M172 0v864q0 45 -45 45h-86v121h145q68 0 96.5 -26.5t28.5 -92.5v-321h107q80 0 117 49l280 391h168l-313 -422q-49 -66 -74 -73v-5q27 -12 61 -75l162 -289q14 -27 33.5 -36t60.5 -9h66v-121h-107q-78 0 -110.5 19.5t-67.5 82.5l-180 322q-25 45 -108 45h-95v-469h-139z " />
<glyph unicode="&#x139;" horiz-adv-x="1085" d="M219 125v1143q0 45 -45 45h-88v127h152q66 0 95 -30t29 -95v-1143q0 -45 46 -45h477q45 0 45 45v96h135v-143q0 -66 -29.5 -95.5t-95.5 -29.5h-596q-66 0 -95.5 29.5t-29.5 95.5zM236 1540l143 244h156l-179 -244h-120z" />
<glyph unicode="&#x13a;" horiz-adv-x="501" d="M176 125v1149q0 45 -45 45h-86v121h145q66 0 95.5 -30t29.5 -95v-1149q0 -45 45 -45h86v-121h-145q-66 0 -95.5 29.5t-29.5 95.5zM154 1540l143 244h156l-179 -244h-120z" />
<glyph unicode="&#x13b;" horiz-adv-x="1085" d="M219 125v1143q0 45 -45 45h-88v127h152q66 0 95 -30t29 -95v-1143q0 -45 46 -45h477q45 0 45 45v96h135v-143q0 -66 -29.5 -95.5t-95.5 -29.5h-596q-66 0 -95.5 29.5t-29.5 95.5zM571 -129h127q14 -49 15 -98q0 -74 -49 -183h-109q39 98 39 164q0 58 -23 117z" />
<glyph unicode="&#x13c;" horiz-adv-x="501" d="M176 125v1149q0 45 -45 45h-86v121h145q66 0 95.5 -30t29.5 -95v-1149q0 -45 45 -45h86v-121h-145q-66 0 -95.5 29.5t-29.5 95.5zM211 -129h127q14 -49 14 -98q0 -74 -49 -183h-108q39 98 38 164q1 58 -22 117z" />
<glyph unicode="&#x13d;" horiz-adv-x="1085" d="M219 125v1143q0 45 -45 45h-88v127h152q66 0 95 -30t29 -95v-1143q0 -45 46 -45h477q45 0 45 45v96h135v-143q0 -66 -29.5 -95.5t-95.5 -29.5h-596q-66 0 -95.5 29.5t-29.5 95.5zM549 1440h127q14 -49 14 -99q0 -74 -49 -182h-109q39 98 39 164q1 58 -22 117z" />
<glyph unicode="&#x13e;" horiz-adv-x="651" d="M176 125v1149q0 45 -45 45h-86v121h145q66 0 95.5 -30t29.5 -95v-1149q0 -45 45 -45h86v-121h-145q-66 0 -95.5 29.5t-29.5 95.5zM442 1440h127q14 -49 15 -99q0 -74 -49 -182h-109q39 98 39 164q0 58 -23 117z" />
<glyph unicode="&#x13f;" horiz-adv-x="1085" d="M219 125v1143q0 45 -45 45h-88v127h152q66 0 95 -30t29 -95v-1143q0 -45 46 -45h477q45 0 45 45v96h135v-143q0 -66 -29.5 -95.5t-95.5 -29.5h-596q-66 0 -95.5 29.5t-29.5 95.5zM616 680v164h158v-164h-158z" />
<glyph unicode="&#x140;" horiz-adv-x="624" d="M176 125v1149q0 45 -45 45h-86v121h145q66 0 95.5 -30t29.5 -95v-1149q0 -45 45 -45h86v-121h-145q-66 0 -95.5 29.5t-29.5 95.5zM457 680v164h157v-164h-157z" />
<glyph unicode="&#x141;" horiz-adv-x="1085" d="M219 125v567l-133 -74v144l133 76v430q0 45 -45 45h-88v127h152q66 0 95 -30t29 -95v-395l224 131v-148l-224 -129v-602q0 -45 46 -45h477q45 0 45 45v96h135v-143q0 -66 -29.5 -95.5t-95.5 -29.5h-596q-66 0 -95.5 29.5t-29.5 95.5z" />
<glyph unicode="&#x142;" horiz-adv-x="546" d="M207 125v602l-174 -98v145l174 100v400q0 45 -45 45h-86v121h145q66 0 95.5 -30t29.5 -95v-361l170 99v-148l-170 -98v-641q0 -45 45 -45h86v-121h-145q-66 0 -95.5 29.5t-29.5 95.5z" />
<glyph unicode="&#x143;" horiz-adv-x="1556" d="M86 0v127h88q45 0 45 45v1268h131l735 -1026l117 -189h4q-10 113 -10 189v901q0 66 29.5 95.5t95.5 29.5h152v-127h-89q-45 0 -45 -45v-1268h-131l-735 1026l-119 186h-4q12 -111 12 -186v-901q0 -66 -29.5 -95.5t-94.5 -29.5h-152zM739 1540l144 244h155l-178 -244h-121 z" />
<glyph unicode="&#x144;" horiz-adv-x="1245" d="M178 0v864q0 45 -45 45h-86v121h143q125 0 125 -115v-47l-4 -73h4q37 94 142.5 177t267.5 83q186 0 266 -100.5t80 -299.5v-489q0 -45 45 -45h86v-121h-145q-66 0 -95.5 29.5t-29.5 95.5v493q0 145 -44 225.5t-179 80.5q-131 0 -235.5 -81t-139.5 -210q-16 -57 -17 -139 v-494h-139zM588 1196l143 244h156l-178 -244h-121z" />
<glyph unicode="&#x145;" horiz-adv-x="1556" d="M86 0v127h88q45 0 45 45v1268h131l735 -1026l117 -189h4q-10 113 -10 189v901q0 66 29.5 95.5t95.5 29.5h152v-127h-89q-45 0 -45 -45v-1268h-131l-735 1026l-119 186h-4q12 -111 12 -186v-901q0 -66 -29.5 -95.5t-94.5 -29.5h-152zM705 -129h126q14 -49 15 -98 q0 -74 -49 -183h-109q39 98 39 164q1 58 -22 117z" />
<glyph unicode="&#x146;" horiz-adv-x="1245" d="M178 0v864q0 45 -45 45h-86v121h143q125 0 125 -115v-47l-4 -73h4q37 94 142.5 177t267.5 83q186 0 266 -100.5t80 -299.5v-489q0 -45 45 -45h86v-121h-145q-66 0 -95.5 29.5t-29.5 95.5v493q0 145 -44 225.5t-179 80.5q-131 0 -235.5 -81t-139.5 -210q-16 -57 -17 -139 v-494h-139zM588 -129h127q14 -49 14 -98q0 -74 -49 -183h-109q39 98 39 164q1 58 -22 117z" />
<glyph unicode="&#x147;" horiz-adv-x="1556" d="M86 0v127h88q45 0 45 45v1268h131l735 -1026l117 -189h4q-10 113 -10 189v901q0 66 29.5 95.5t95.5 29.5h152v-127h-89q-45 0 -45 -45v-1268h-131l-735 1026l-119 186h-4q12 -111 12 -186v-901q0 -66 -29.5 -95.5t-94.5 -29.5h-152zM729 1540l-172 244h131l111 -164h4 l110 164h129l-172 -244h-141z" />
<glyph unicode="&#x148;" horiz-adv-x="1245" d="M178 0v864q0 45 -45 45h-86v121h143q125 0 125 -115v-47l-4 -73h4q37 94 142.5 177t267.5 83q186 0 266 -100.5t80 -299.5v-489q0 -45 45 -45h86v-121h-145q-66 0 -95.5 29.5t-29.5 95.5v493q0 145 -44 225.5t-179 80.5q-131 0 -235.5 -81t-139.5 -210q-16 -57 -17 -139 v-494h-139zM578 1196l-172 244h131l110 -164h4l111 164h129l-172 -244h-141z" />
<glyph unicode="&#x149;" horiz-adv-x="1294" d="M227 0v864q0 45 -45 45h-86v121h144q125 0 125 -115v-47l-5 -73h5q37 94 142 177t267 83q186 0 266 -100.5t80 -299.5v-489q0 -45 45 -45h86v-121h-145q-66 0 -95.5 29.5t-29.5 95.5v493q0 145 -44 225.5t-179 80.5q-131 0 -235.5 -81t-139.5 -210q-16 -57 -16 -139v-494 h-140zM-2 1440h127q14 -49 14 -99q0 -74 -49 -182h-108q39 98 38 164q1 58 -22 117z" />
<glyph unicode="&#x14a;" horiz-adv-x="1556" d="M86 0v127h88q45 0 45 45v1268h131l735 -1026l117 -189h4q-10 113 -10 189v901q0 66 29.5 95.5t95.5 29.5h152v-127h-89q-45 0 -45 -45v-1243q0 -123 -37.5 -212t-101 -138.5t-135.5 -72t-154 -22.5v133q113 0 199 72t86 221v14l-723 1006l-119 186h-4q12 -111 12 -186 v-901q0 -66 -29.5 -95.5t-94.5 -29.5h-152z" />
<glyph unicode="&#x14b;" horiz-adv-x="1234" d="M178 0v864q0 45 -45 45h-86v121h143q125 0 125 -115v-47l-4 -73h4q37 94 142.5 177t267.5 83q186 0 266 -100.5t80 -299.5v-702q0 -121 -38 -203t-99.5 -117.5t-113.5 -49t-107 -13.5l-60 6v121q18 -2 45 -2q37 0 72 9t75 33.5t63.5 82t23.5 139.5v659q0 145 -44 225.5 t-179 80.5q-131 0 -235.5 -82t-139.5 -211q-16 -55 -17 -137v-494h-139z" />
<glyph unicode="&#x14c;" horiz-adv-x="1619" d="M78 729q0 309 213 522t520 213t520 -213t213 -522q0 -315 -214 -534.5t-519 -219.5q-307 0 -520 219.5t-213 534.5zM227 729q0 -260 170 -439t414 -179q242 0 413 179t171 439q0 254 -170 427t-414 173t-414 -173t-170 -427zM553 1608v110h504v-110h-504z" />
<glyph unicode="&#x14d;" horiz-adv-x="1251" d="M82 520q0 227 158.5 381t384.5 154q227 0 385.5 -153.5t158.5 -381.5q0 -231 -158.5 -388t-383.5 -157q-227 0 -386 157t-159 388zM225 520q0 -178 117 -299t285 -121q166 0 282.5 121t116.5 299q0 174 -116.5 291t-282.5 117q-168 0 -285 -117t-117 -291zM375 1264v110 h504v-110h-504z" />
<glyph unicode="&#x14e;" horiz-adv-x="1619" d="M78 729q0 309 213 522t520 213t520 -213t213 -522q0 -315 -214 -534.5t-519 -219.5q-307 0 -520 219.5t-213 534.5zM227 729q0 -260 170 -439t414 -179q242 0 413 179t171 439q0 254 -170 427t-414 173t-414 -173t-170 -427zM805 1534q-94 0 -164 58.5t-70 160.5v31h107 v-27q0 -63 36 -95t91 -32q53 0 89 32t36 95v27h106v-31q0 -102 -68.5 -160.5t-162.5 -58.5z" />
<glyph unicode="&#x14f;" horiz-adv-x="1251" d="M82 520q0 227 158.5 381t384.5 154q227 0 385.5 -153.5t158.5 -381.5q0 -231 -158.5 -388t-383.5 -157q-227 0 -386 157t-159 388zM225 520q0 -178 117 -299t285 -121q166 0 282.5 121t116.5 299q0 174 -116.5 291t-282.5 117q-168 0 -285 -117t-117 -291zM626.5 1190 q-94.5 0 -164 58.5t-69.5 160.5v31h107v-27q0 -63 35.5 -95t91.5 -32q53 0 89 32t36 95v27h106v-31q0 -102 -68.5 -160.5t-163 -58.5z" />
<glyph unicode="&#x150;" horiz-adv-x="1619" d="M78 729q0 309 213 522t520 213t520 -213t213 -522q0 -315 -214 -534.5t-519 -219.5q-307 0 -520 219.5t-213 534.5zM227 729q0 -260 170 -439t414 -179q242 0 413 179t171 439q0 254 -170 427t-414 173t-414 -173t-170 -427zM877 1540l143 244h156l-179 -244h-120z M604 1540l135 244h133l-137 -244h-131z" />
<glyph unicode="&#x151;" horiz-adv-x="1251" d="M82 520q0 227 158.5 381t384.5 154q227 0 385.5 -153.5t158.5 -381.5q0 -231 -158.5 -388t-383.5 -157q-227 0 -386 157t-159 388zM225 520q0 -178 117 -299t285 -121q166 0 282.5 121t116.5 299q0 174 -116.5 291t-282.5 117q-168 0 -285 -117t-117 -291zM698 1196 l144 244h155l-178 -244h-121zM426 1196l135 244h133l-137 -244h-131z" />
<glyph unicode="&#x152;" horiz-adv-x="1863" d="M78 721q0 313 197.5 526t496.5 213q51 0 153.5 -10t137.5 -10h565q66 0 95.5 -30t29.5 -95v-144h-133v97q0 45 -45 45h-477v-525h524v-126h-524v-535h536q45 0 45 45v96h133v-143q0 -125 -114 -125h-633q-35 0 -138.5 -10t-154.5 -10q-299 0 -496.5 213t-197.5 528z M227 721q0 -262 150.5 -433t394.5 -171q119 0 182 14v1176q-72 16 -182 16q-242 0 -393.5 -171t-151.5 -431z" />
<glyph unicode="&#x153;" horiz-adv-x="2068" d="M82 512q0 240 157.5 391.5t385.5 151.5q154 0 276.5 -74t190.5 -203h4q59 131 174.5 204t265.5 73q205 0 318.5 -136.5t113.5 -338.5l-4 -70h-790q8 -193 121.5 -301.5t277.5 -108.5q170 0 299 117l10 10l68 -104q-16 -16 -48 -41t-131.5 -66t-203.5 -41q-160 0 -283 75 t-186 206h-4q-66 -131 -189 -206t-280 -75q-227 0 -385 149.5t-158 387.5zM1180 621h645q-8 154 -89 235.5t-202 81.5q-133 0 -231 -83.5t-123 -233.5zM225 512q0 -182 116 -297t284 -115t283.5 117t115.5 303q0 182 -116.5 295t-282.5 113q-168 0 -284 -116t-116 -300z" />
<glyph unicode="&#x154;" horiz-adv-x="1239" d="M219 0v1313h-133v127h610q182 0 298 -111.5t116 -298.5q0 -158 -82 -259t-197 -126v-4q29 -16 50 -57l206 -410q14 -31 37 -39t66 -8h29v-127h-64q-90 0 -127 19.5t-72 89.5l-206 411q-29 55 -56.5 70.5t-89.5 15.5h-242v-606h-143zM362 733h320q129 0 204 79t75 214 q0 133 -75 210t-202 77h-322v-580zM518 1540l144 244h155l-178 -244h-121z" />
<glyph unicode="&#x155;" horiz-adv-x="739" d="M178 0v864q0 45 -45 45h-86v121h143q125 0 125 -117v-69l-4 -78h4q39 123 124 198.5t202 75.5l55 -6v-137q-25 4 -51 4q-106 0 -185 -73.5t-114 -192.5q-29 -92 -29 -201v-434h-139zM317 1196l144 244h155l-178 -244h-121z" />
<glyph unicode="&#x156;" horiz-adv-x="1239" d="M219 0v1313h-133v127h610q182 0 298 -111.5t116 -298.5q0 -158 -82 -259t-197 -126v-4q29 -16 50 -57l206 -410q14 -31 37 -39t66 -8h29v-127h-64q-90 0 -127 19.5t-72 89.5l-206 411q-29 55 -56.5 70.5t-89.5 15.5h-242v-606h-143zM362 733h320q129 0 204 79t75 214 q0 133 -75 210t-202 77h-322v-580zM610 -129h127q14 -49 15 -98q0 -74 -50 -183h-108q39 98 39 164q0 58 -23 117z" />
<glyph unicode="&#x157;" horiz-adv-x="739" d="M178 0v864q0 45 -45 45h-86v121h143q125 0 125 -117v-69l-4 -78h4q39 123 124 198.5t202 75.5l55 -6v-137q-25 4 -51 4q-106 0 -185 -73.5t-114 -192.5q-29 -92 -29 -201v-434h-139zM190 -129h127q14 -49 15 -98q0 -74 -49 -183h-109q39 98 39 164q0 58 -23 117z" />
<glyph unicode="&#x158;" horiz-adv-x="1239" d="M219 0v1313h-133v127h610q182 0 298 -111.5t116 -298.5q0 -158 -82 -259t-197 -126v-4q29 -16 50 -57l206 -410q14 -31 37 -39t66 -8h29v-127h-64q-90 0 -127 19.5t-72 89.5l-206 411q-29 55 -56.5 70.5t-89.5 15.5h-242v-606h-143zM362 733h320q129 0 204 79t75 214 q0 133 -75 210t-202 77h-322v-580zM508 1540l-172 244h131l111 -164h4l110 164h129l-172 -244h-141z" />
<glyph unicode="&#x159;" horiz-adv-x="739" d="M178 0v864q0 45 -45 45h-86v121h143q125 0 125 -117v-69l-4 -78h4q39 123 124 198.5t202 75.5l55 -6v-137q-25 4 -51 4q-106 0 -185 -73.5t-114 -192.5q-29 -92 -29 -201v-434h-139zM309 1196l-172 244h131l111 -164h4l111 164h129l-172 -244h-142z" />
<glyph unicode="&#x15a;" horiz-adv-x="1060" d="M76 180l88 105q6 -6 17.5 -18.5t48 -43t77.5 -53.5t103.5 -42t126.5 -19q121 0 202.5 71.5t81.5 184.5q0 98 -72.5 167.5t-177.5 116.5l-210 97q-105 50 -177.5 138.5t-72.5 211.5q0 154 122.5 261t317.5 107q82 0 165 -20.5t153.5 -79.5t70.5 -147v-103h-135v68 q0 63 -75 106t-177 43q-135 0 -215 -67.5t-80 -163.5q0 -59 30.5 -107.5t81 -80t114 -64.5t130 -59.5t130 -65.5t113.5 -83t81 -112.5t31 -154.5q0 -168 -120 -283t-317 -115q-82 0 -159.5 21.5t-128.5 51.5t-91 59.5t-59 52.5zM481 1540l144 244h155l-178 -244h-121z" />
<glyph unicode="&#x15b;" horiz-adv-x="901" d="M59 156l80 96q4 -6 13.5 -16.5t40 -38t64.5 -48t88 -37t112 -16.5q92 0 154.5 43t62.5 121q0 61 -59.5 106.5t-144.5 78t-170 69.5t-144.5 103.5t-59.5 158.5q0 135 102.5 207t264.5 72q45 0 94 -9.5t100.5 -29t85 -58t33.5 -90.5v-88h-131v49q0 51 -57.5 78t-120.5 27 q-229 0 -229 -150q0 -63 59 -108t144 -77t170 -68.5t144.5 -104.5t59.5 -162q0 -127 -102.5 -208t-257.5 -81q-227 0 -373 154zM387 1196l143 244h156l-178 -244h-121z" />
<glyph unicode="&#x15c;" horiz-adv-x="1060" d="M76 180l88 105q6 -6 17.5 -18.5t48 -43t77.5 -53.5t103.5 -42t126.5 -19q121 0 202.5 71.5t81.5 184.5q0 98 -72.5 167.5t-177.5 116.5l-210 97q-105 50 -177.5 138.5t-72.5 211.5q0 154 122.5 261t317.5 107q82 0 165 -20.5t153.5 -79.5t70.5 -147v-103h-135v68 q0 63 -75 106t-177 43q-135 0 -215 -67.5t-80 -163.5q0 -59 30.5 -107.5t81 -80t114 -64.5t130 -59.5t130 -65.5t113.5 -83t81 -112.5t31 -154.5q0 -168 -120 -283t-317 -115q-82 0 -159.5 21.5t-128.5 51.5t-91 59.5t-59 52.5zM301 1540l170 244h143l170 -244h-129 l-110 166h-4l-111 -166h-129z" />
<glyph unicode="&#x15d;" horiz-adv-x="901" d="M59 156l80 96q4 -6 13.5 -16.5t40 -38t64.5 -48t88 -37t112 -16.5q92 0 154.5 43t62.5 121q0 61 -59.5 106.5t-144.5 78t-170 69.5t-144.5 103.5t-59.5 158.5q0 135 102.5 207t264.5 72q45 0 94 -9.5t100.5 -29t85 -58t33.5 -90.5v-88h-131v49q0 51 -57.5 78t-120.5 27 q-229 0 -229 -150q0 -63 59 -108t144 -77t170 -68.5t144.5 -104.5t59.5 -162q0 -127 -102.5 -208t-257.5 -81q-227 0 -373 154zM207 1196l170 244h143l170 -244h-129l-110 166h-5l-110 -166h-129z" />
<glyph unicode="&#x15e;" horiz-adv-x="1060" d="M76 180l88 105q6 -6 17.5 -18.5t48 -43t77.5 -53.5t103.5 -42t126.5 -19q121 0 202.5 71.5t81.5 184.5q0 98 -72.5 167.5t-177.5 116.5l-210 97q-105 50 -177.5 138.5t-72.5 211.5q0 154 122.5 261t317.5 107q82 0 165 -20.5t153.5 -79.5t70.5 -147v-103h-135v68 q0 63 -75 106t-177 43q-135 0 -215 -67.5t-80 -163.5q0 -59 30.5 -107.5t81 -80t114 -64.5t130 -59.5t130 -65.5t113.5 -83t81 -112.5t31 -154.5q0 -160 -109.5 -273.5t-294.5 -124.5l-16 -88q66 -10 104.5 -48t38.5 -97q0 -84 -56 -123t-140 -39l-101 10v99q39 -12 84 -13 q104 0 104.5 70t-116.5 70l-31 -2l39 166q-223 20 -379 178z" />
<glyph unicode="&#x15f;" horiz-adv-x="901" d="M59 156l80 96q4 -6 13.5 -16.5t40 -38t64.5 -48t88 -37t112 -16.5q92 0 154.5 43t62.5 121q0 61 -59.5 106.5t-144.5 78t-170 69.5t-144.5 103.5t-59.5 158.5q0 135 102.5 207t264.5 72q45 0 94 -9.5t100.5 -29t85 -58t33.5 -90.5v-88h-131v49q0 51 -57.5 78t-120.5 27 q-229 0 -229 -150q0 -63 59 -108t144 -77t170 -68.5t144.5 -104.5t59.5 -162q0 -125 -97 -203.5t-247 -85.5l-16 -88q66 -10 104.5 -48t38.5 -97q0 -84 -56.5 -123t-140.5 -39l-100 10v99q39 -12 84 -13q104 0 104 70t-116 70l-31 -2l39 168q-190 23 -309 157z" />
<glyph unicode="&#x160;" horiz-adv-x="1060" d="M76 180l88 105q6 -6 17.5 -18.5t48 -43t77.5 -53.5t103.5 -42t126.5 -19q121 0 202.5 71.5t81.5 184.5q0 98 -72.5 167.5t-177.5 116.5l-210 97q-105 50 -177.5 138.5t-72.5 211.5q0 154 122.5 261t317.5 107q82 0 165 -20.5t153.5 -79.5t70.5 -147v-103h-135v68 q0 63 -75 106t-177 43q-135 0 -215 -67.5t-80 -163.5q0 -59 30.5 -107.5t81 -80t114 -64.5t130 -59.5t130 -65.5t113.5 -83t81 -112.5t31 -154.5q0 -168 -120 -283t-317 -115q-82 0 -159.5 21.5t-128.5 51.5t-91 59.5t-59 52.5zM473 1540l-172 244h131l111 -164h4l110 164 h129l-172 -244h-141z" />
<glyph unicode="&#x161;" horiz-adv-x="901" d="M59 156l80 96q4 -6 13.5 -16.5t40 -38t64.5 -48t88 -37t112 -16.5q92 0 154.5 43t62.5 121q0 61 -59.5 106.5t-144.5 78t-170 69.5t-144.5 103.5t-59.5 158.5q0 135 102.5 207t264.5 72q45 0 94 -9.5t100.5 -29t85 -58t33.5 -90.5v-88h-131v49q0 51 -57.5 78t-120.5 27 q-229 0 -229 -150q0 -63 59 -108t144 -77t170 -68.5t144.5 -104.5t59.5 -162q0 -127 -102.5 -208t-257.5 -81q-227 0 -373 154zM379 1196l-172 244h131l111 -164h4l110 164h129l-172 -244h-141z" />
<glyph unicode="&#x162;" horiz-adv-x="1269" d="M1061 1313h-354v-1313h-29l-21 -113q66 -10 105 -48t39 -97q0 -84 -56.5 -123t-140.5 -39l-102 10v99q39 -12 86 -13q104 0 104 70t-117 70l-30 -2l43 186h-25v1313h-356q-45 0 -45 -45v-97h-131v152q0 66 25.5 91.5t90.5 25.5h975q66 0 91.5 -25.5t25.5 -91.5v-152h-133 v97q0 45 -45 45z" />
<glyph unicode="&#x163;" horiz-adv-x="686" d="M190 375v538h-135v117h138v285h137v-285h258v-117h-258v-524q0 -70 17.5 -121t42 -79.5t57 -45t59 -21.5t55.5 -5l47 4v-125q-25 -4 -59 -4q-51 0 -100 10l-21 -115q66 -10 104.5 -48t38.5 -97q0 -84 -56 -123t-140 -39l-101 10v99q39 -12 84 -13q104 0 104.5 70 t-116.5 70l-31 -2l52 215q-177 84 -177 346z" />
<glyph unicode="&#x164;" horiz-adv-x="1269" d="M563 0v1313h-356q-45 0 -45 -45v-97h-131v152q0 66 25.5 91.5t90.5 25.5h975q66 0 91.5 -25.5t25.5 -91.5v-152h-133v97q0 45 -45 45h-354v-1313h-144zM565 1540l-172 244h131l111 -164h4l111 164h129l-172 -244h-142z" />
<glyph unicode="&#x165;" horiz-adv-x="712" d="M193 375v538h-136v117h138v285h137v-285h258v-117h-258v-524q0 -70 17.5 -121t42 -79.5t57 -45t59.5 -21.5t55 -5l47 4v-125q-25 -4 -59 -4q-43 0 -84 6t-93 29.5t-90 62.5t-64.5 113t-26.5 172zM471 1440h127q14 -49 14 -99q0 -74 -49 -182h-108q39 98 39 164 q0 58 -23 117z" />
<glyph unicode="&#x166;" horiz-adv-x="1269" d="M563 0v664h-330v116h330v533h-356q-45 0 -45 -45v-97h-131v152q0 66 25.5 91.5t90.5 25.5h975q66 0 91.5 -25.5t25.5 -91.5v-152h-133v97q0 45 -45 45h-354v-533h337v-116h-337v-664h-144z" />
<glyph unicode="&#x167;" horiz-adv-x="686" d="M190 375v194h-135v109h135v235h-135v117h138v285h137v-285h258v-117h-258v-235h258v-109h-258v-184q0 -82 24.5 -140.5t63.5 -84t72.5 -34.5t70.5 -9l47 4v-125q-25 -4 -59 -4q-43 0 -84 6t-93.5 29.5t-90 62.5t-64.5 113t-27 172z" />
<glyph unicode="&#x168;" horiz-adv-x="1468" d="M203 494v774q0 45 -45 45h-88v127h151q66 0 95.5 -30t29.5 -95v-815q0 -180 105.5 -284.5t281.5 -104.5q178 0 283.5 105.5t105.5 287.5v811q0 66 30 95.5t95 29.5h152v-127h-88q-45 0 -45 -45v-774q0 -233 -146.5 -376t-384 -143t-385 143t-147.5 376zM414 1546 q0 240 190 240q59 0 103.5 -37t81 -74t73.5 -37q82 0 82 142h109q0 -240 -191 -240q-59 0 -104 37t-81 73t-75 36q-82 0 -82 -140h-106z" />
<glyph unicode="&#x169;" horiz-adv-x="1234" d="M174 375v489q0 45 -45 45h-86v121h145q66 0 95.5 -28.5t29.5 -92.5v-497q0 -145 45 -225.5t181 -80.5q168 0 273.5 128t105.5 303v493h139v-864q0 -45 45 -45h86v-121h-141q-125 0 -125 115v47l4 74h-4q-39 -94 -144.5 -177.5t-257.5 -83.5q-180 0 -263 98.5t-83 301.5z M281 1202q0 240 190 240q59 0 103 -37t81 -74t74 -37q82 0 82 142h109q0 -240 -191 -240q-59 0 -104 37t-81 72.5t-75 35.5q-82 0 -82 -139h-106z" />
<glyph unicode="&#x16a;" horiz-adv-x="1468" d="M203 494v774q0 45 -45 45h-88v127h151q66 0 95.5 -30t29.5 -95v-815q0 -180 105.5 -284.5t281.5 -104.5q178 0 283.5 105.5t105.5 287.5v811q0 66 30 95.5t95 29.5h152v-127h-88q-45 0 -45 -45v-774q0 -233 -146.5 -376t-384 -143t-385 143t-147.5 376zM485 1608v110h504 v-110h-504z" />
<glyph unicode="&#x16b;" horiz-adv-x="1234" d="M174 375v489q0 45 -45 45h-86v121h145q66 0 95.5 -28.5t29.5 -92.5v-497q0 -145 45 -225.5t181 -80.5q168 0 273.5 128t105.5 303v493h139v-864q0 -45 45 -45h86v-121h-141q-125 0 -125 115v47l4 74h-4q-39 -94 -144.5 -177.5t-257.5 -83.5q-180 0 -263 98.5t-83 301.5z M352 1264v110h504v-110h-504z" />
<glyph unicode="&#x16c;" horiz-adv-x="1468" d="M203 494v774q0 45 -45 45h-88v127h151q66 0 95.5 -30t29.5 -95v-815q0 -180 105.5 -284.5t281.5 -104.5q178 0 283.5 105.5t105.5 287.5v811q0 66 30 95.5t95 29.5h152v-127h-88q-45 0 -45 -45v-774q0 -233 -146.5 -376t-384 -143t-385 143t-147.5 376zM737 1534 q-94 0 -163.5 58.5t-69.5 160.5v31h106v-27q0 -63 36 -95t91 -32q53 0 89 32t36 95v27h107v-31q0 -102 -69 -160.5t-163 -58.5z" />
<glyph unicode="&#x16d;" horiz-adv-x="1234" d="M174 375v489q0 45 -45 45h-86v121h145q66 0 95.5 -28.5t29.5 -92.5v-497q0 -145 45 -225.5t181 -80.5q168 0 273.5 128t105.5 303v493h139v-864q0 -45 45 -45h86v-121h-141q-125 0 -125 115v47l4 74h-4q-39 -94 -144.5 -177.5t-257.5 -83.5q-180 0 -263 98.5t-83 301.5z M604 1190q-94 0 -163.5 58.5t-69.5 160.5v31h106v-27q0 -63 36 -95t91 -32q53 0 89 32t36 95v27h107v-31q0 -102 -69 -160.5t-163 -58.5z" />
<glyph unicode="&#x16e;" horiz-adv-x="1468" d="M203 494v774q0 45 -45 45h-88v127h151q66 0 95.5 -30t29.5 -95v-815q0 -180 105.5 -284.5t281.5 -104.5q178 0 283.5 105.5t105.5 287.5v811q0 66 30 95.5t95 29.5h152v-127h-88q-45 0 -45 -45v-774q0 -233 -146.5 -376t-384 -143t-385 143t-147.5 376zM737.5 1518 q-63.5 0 -107.5 40.5t-44 104t44 104.5t107.5 41t107.5 -41t44 -104.5t-44 -104t-107.5 -40.5zM737 1595q29 0 48.5 19.5t19.5 48.5q0 31 -19.5 50.5t-48 19.5t-48 -19.5t-19.5 -50.5q0 -29 18 -48.5t49 -19.5z" />
<glyph unicode="&#x16f;" horiz-adv-x="1234" d="M174 375v489q0 45 -45 45h-86v121h145q66 0 95.5 -28.5t29.5 -92.5v-497q0 -145 45 -225.5t181 -80.5q168 0 273.5 128t105.5 303v493h139v-864q0 -45 45 -45h86v-121h-141q-125 0 -125 115v47l4 74h-4q-39 -94 -144.5 -177.5t-257.5 -83.5q-180 0 -263 98.5t-83 301.5z M604.5 1174q-63.5 0 -107.5 40.5t-44 104t44 104.5t107.5 41t107.5 -41t44 -104.5t-44 -104t-107.5 -40.5zM604 1251q29 0 48.5 19.5t19.5 48.5q0 31 -19.5 50.5t-48.5 19.5t-48 -19.5t-19 -50.5q0 -29 18 -48.5t49 -19.5z" />
<glyph unicode="&#x170;" horiz-adv-x="1468" d="M203 494v774q0 45 -45 45h-88v127h151q66 0 95.5 -30t29.5 -95v-815q0 -180 105.5 -284.5t281.5 -104.5q178 0 283.5 105.5t105.5 287.5v811q0 66 30 95.5t95 29.5h152v-127h-88q-45 0 -45 -45v-774q0 -233 -146.5 -376t-384 -143t-385 143t-147.5 376zM809 1540l143 244 h156l-178 -244h-121zM537 1540l135 244h133l-137 -244h-131z" />
<glyph unicode="&#x171;" horiz-adv-x="1234" d="M174 375v489q0 45 -45 45h-86v121h145q66 0 95.5 -28.5t29.5 -92.5v-497q0 -145 45 -225.5t181 -80.5q168 0 273.5 128t105.5 303v493h139v-864q0 -45 45 -45h86v-121h-141q-125 0 -125 115v47l4 74h-4q-39 -94 -144.5 -177.5t-257.5 -83.5q-180 0 -263 98.5t-83 301.5z M676 1196l143 244h156l-178 -244h-121zM403 1196l136 244h133l-137 -244h-132z" />
<glyph unicode="&#x172;" horiz-adv-x="1468" d="M203 494v774q0 45 -45 45h-88v127h151q66 0 95.5 -30t29.5 -95v-815q0 -180 105.5 -284.5t281.5 -104.5q178 0 283.5 105.5t105.5 287.5v811q0 66 30 95.5t95 29.5h152v-127h-88q-45 0 -45 -45v-787q0 -299 -279 -454q-195 -113 -194 -230q0 -41 31.5 -66.5t64.5 -29.5 l31 -6l-33 -115q-8 0 -23.5 2t-54.5 14.5t-68.5 31t-54 55t-24.5 86.5q0 109 106 206v5q-23 -2 -41 -3q-233 0 -378.5 144t-145.5 373z" />
<glyph unicode="&#x173;" horiz-adv-x="1234" d="M520 -25q-180 0 -263 98.5t-83 301.5v489q0 45 -45 45h-86v121h145q80 0 102.5 -38t22.5 -140v-440q0 -145 45 -225.5t181 -80.5q168 0 273.5 128t105.5 303v493h139v-864q0 -45 45 -45h86v-121q-147 -119 -148 -203q0 -41 32 -66.5t63 -29.5l32 -6l-30 -115 q-8 0 -23.5 2t-54.5 14.5t-68.5 31t-54.5 55t-25 86.5q0 131 138 229v4h-23q-104 0 -104 113v47l4 71h-6q-4 -10 -12.5 -27.5t-42.5 -62.5t-74.5 -78.5t-113.5 -61.5t-157 -28z" />
<glyph unicode="&#x174;" horiz-adv-x="1935" d="M465 0l-330 1268q-12 45 -76 45h-24v127h63q82 0 119 -23.5t55 -95.5l250 -993l31 -154h4q18 80 39 154l317 1106h142l288 -1106l33 -154h4q14 80 33 154l250 993q18 72 55 95.5t119 23.5h64v-127h-23q-63 0 -76 -45l-332 -1268h-170l-268 1001l-47 213h-4 q-25 -119 -51 -210l-295 -1004h-170zM741 1540l170 244h144l170 -244h-129l-111 166h-4l-111 -166h-129z" />
<glyph unicode="&#x175;" horiz-adv-x="1708" d="M414 0l-295 862q-16 47 -72 47h-27v121h72q76 0 107.5 -21.5t54.5 -93.5l211 -653l31 -110h4q16 61 32 110l252 764h140l252 -764l32 -110h4q12 59 29 110l213 653q23 72 54.5 93.5t107.5 21.5h72v-121h-29q-55 0 -72 -47l-295 -862h-153l-252 733l-31 111h-4 q-14 -59 -33 -111l-250 -733h-155zM612 1196l170 244h144l170 -244h-129l-111 166h-4l-111 -166h-129z" />
<glyph unicode="&#x176;" horiz-adv-x="1212" d="M535 0v627l-385 633q-33 53 -97 53h-33v127h56q76 0 113.5 -20.5t82.5 -94.5l244 -407l88 -162h4q43 86 88 162l244 407q45 74 83 94.5t114 20.5h55v-127h-33q-63 0 -94 -53l-387 -633v-627h-143zM367 1540l170 244h143l170 -244h-129l-111 166h-4l-110 -166h-129z" />
<glyph unicode="&#x177;" horiz-adv-x="1103" d="M82 -227q0 -4 18.5 -21.5t57.5 -37t78 -19.5q121 0 190 168l61 141l-362 858q-20 47 -72 47h-20v121h63q70 0 99.5 -21.5t58.5 -90.5l264 -644l37 -110h4q14 59 35 110l254 644q27 70 57.5 91t102.5 21h63v-121h-20q-53 0 -72 -47l-444 -1077q-41 -100 -118 -157.5 t-177 -57.5q-133 0 -220 94l-4 6zM307 1196l170 244h144l170 -244h-129l-111 166h-4l-111 -166h-129z" />
<glyph unicode="&#x178;" horiz-adv-x="1212" d="M535 0v627l-385 633q-33 53 -97 53h-33v127h56q76 0 113.5 -20.5t82.5 -94.5l244 -407l88 -162h4q43 86 88 162l244 407q45 74 83 94.5t114 20.5h55v-127h-33q-63 0 -94 -53l-387 -633v-627h-143zM702 1608v176h121v-176h-121zM395 1608v176h121v-176h-121z" />
<glyph unicode="&#x179;" horiz-adv-x="1177" d="M39 0v100l772 1082l50 65q26 33 40 49l14 17v4q-35 -4 -104 -4h-573q-45 0 -45 -45v-97h-134v144q0 66 30 95.5t95 29.5h908v-101l-770 -1081l-52 -65l-41 -50l-14 -16v-4q35 4 107 4h620q45 0 45 45v96h133v-143q0 -66 -29.5 -95.5t-95.5 -29.5h-956zM537 1540l143 244 h156l-179 -244h-120z" />
<glyph unicode="&#x17a;" horiz-adv-x="1021" d="M80 0v90l579 723l82 94v4q-35 -4 -102 -4h-377q-45 0 -45 -45v-80h-131v123q0 66 29.5 95.5t95.5 29.5h715v-92l-578 -721l-86 -94v-4q37 4 105 4h426q45 0 45 45v80h131v-123q0 -66 -30 -95.5t-95 -29.5h-764zM467 1196l143 244h156l-178 -244h-121z" />
<glyph unicode="&#x17b;" horiz-adv-x="1177" d="M39 0v100l772 1082l50 65q26 33 40 49l14 17v4q-35 -4 -104 -4h-573q-45 0 -45 -45v-97h-134v144q0 66 30 95.5t95 29.5h908v-101l-770 -1081l-52 -65l-41 -50l-14 -16v-4q35 4 107 4h620q45 0 45 45v96h133v-143q0 -66 -29.5 -95.5t-95.5 -29.5h-956zM530 1608v176h136 v-176h-136z" />
<glyph unicode="&#x17c;" horiz-adv-x="1021" d="M80 0v90l579 723l82 94v4q-35 -4 -102 -4h-377q-45 0 -45 -45v-80h-131v123q0 66 29.5 95.5t95.5 29.5h715v-92l-578 -721l-86 -94v-4q37 4 105 4h426q45 0 45 45v80h131v-123q0 -66 -30 -95.5t-95 -29.5h-764zM461 1264v176h135v-176h-135z" />
<glyph unicode="&#x17d;" horiz-adv-x="1177" d="M39 0v100l772 1082l50 65q26 33 40 49l14 17v4q-35 -4 -104 -4h-573q-45 0 -45 -45v-97h-134v144q0 66 30 95.5t95 29.5h908v-101l-770 -1081l-52 -65l-41 -50l-14 -16v-4q35 4 107 4h620q45 0 45 45v96h133v-143q0 -66 -29.5 -95.5t-95.5 -29.5h-956zM528 1540l-172 244 h131l111 -164h4l111 164h129l-172 -244h-142z" />
<glyph unicode="&#x17e;" horiz-adv-x="1021" d="M80 0v90l579 723l82 94v4q-35 -4 -102 -4h-377q-45 0 -45 -45v-80h-131v123q0 66 29.5 95.5t95.5 29.5h715v-92l-578 -721l-86 -94v-4q37 4 105 4h426q45 0 45 45v80h131v-123q0 -66 -30 -95.5t-95 -29.5h-764zM457 1196l-172 244h131l110 -164h4l111 164h129l-172 -244 h-141z" />
<glyph unicode="&#x17f;" horiz-adv-x="624" d="M180 0v913h-129v117h129v37q0 119 38 202t98.5 118.5t112.5 49t106 13.5l63 -4v-125q-18 4 -49 4q-37 0 -70 -9t-72.5 -32.5t-63.5 -80t-24 -136.5v-1067h-139z" />
<glyph unicode="&#x192;" horiz-adv-x="708" d="M-47 -115l-62 4l13 123q18 -4 47 -4t55.5 5t61 21.5t60.5 43t47.5 77t27.5 117.5l41 473h-162v119h174l18 203q8 96 41 170t74 113t94.5 62.5t94 30.5t84.5 7l63 -4l-12 -125q-18 4 -47 4q-39 0 -73 -9t-75 -34t-69.5 -81t-36.5 -140l-19 -197h223v-119h-233l-41 -479 q-8 -96 -41 -168.5t-75 -111.5t-96 -63.5t-94 -31t-83 -6.5z" />
<glyph unicode="&#x218;" horiz-adv-x="1060" d="M76 180l88 105q6 -6 17.5 -18.5t48 -43t77.5 -53.5t103.5 -42t126.5 -19q121 0 202.5 71.5t81.5 184.5q0 98 -72.5 167.5t-177.5 116.5l-210 97q-105 50 -177.5 138.5t-72.5 211.5q0 154 122.5 261t317.5 107q82 0 165 -20.5t153.5 -79.5t70.5 -147v-103h-135v68 q0 63 -75 106t-177 43q-135 0 -215 -67.5t-80 -163.5q0 -59 30.5 -107.5t81 -80t114 -64.5t130 -59.5t130 -65.5t113.5 -83t81 -112.5t31 -154.5q0 -168 -120 -283t-317 -115q-82 0 -159.5 21.5t-128.5 51.5t-91 59.5t-59 52.5zM469 -129h127q14 -49 14 -98q0 -74 -49 -183 h-108q39 98 39 164q0 58 -23 117z" />
<glyph unicode="&#x219;" horiz-adv-x="901" d="M59 156l80 96q4 -6 13.5 -16.5t40 -38t64.5 -48t88 -37t112 -16.5q92 0 154.5 43t62.5 121q0 61 -59.5 106.5t-144.5 78t-170 69.5t-144.5 103.5t-59.5 158.5q0 135 102.5 207t264.5 72q45 0 94 -9.5t100.5 -29t85 -58t33.5 -90.5v-88h-131v49q0 51 -57.5 78t-120.5 27 q-229 0 -229 -150q0 -63 59 -108t144 -77t170 -68.5t144.5 -104.5t59.5 -162q0 -127 -102.5 -208t-257.5 -81q-227 0 -373 154zM383 -129h127q14 -49 14 -98q0 -74 -49 -183h-108q39 98 39 164q0 58 -23 117z" />
<glyph unicode="&#x21a;" horiz-adv-x="1269" d="M563 0v1313h-356q-45 0 -45 -45v-97h-131v152q0 66 25.5 91.5t90.5 25.5h975q66 0 91.5 -25.5t25.5 -91.5v-152h-133v97q0 45 -45 45h-354v-1313h-144zM567 -129h127q14 -49 15 -98q0 -74 -50 -183h-108q39 98 39 164q0 58 -23 117z" />
<glyph unicode="&#x21b;" horiz-adv-x="686" d="M190 375v538h-135v117h138v285h137v-285h258v-117h-258v-524q0 -70 17.5 -121t42 -79.5t57 -45t59 -21.5t55.5 -5l47 4v-125q-25 -4 -59 -4q-43 0 -84 6t-93.5 29.5t-90 62.5t-64.5 113t-27 172zM328 -129h127q14 -49 14 -98q0 -74 -49 -183h-109q39 98 39 164 q1 58 -22 117z" />
<glyph unicode="&#x2c6;" horiz-adv-x="962" d="M240 1540l170 244h143l170 -244h-129l-111 166h-4l-110 -166h-129z" />
<glyph unicode="&#x2c7;" horiz-adv-x="970" d="M410 1540l-172 244h131l110 -164h4l111 164h129l-172 -244h-141z" />
<glyph unicode="&#x2d8;" horiz-adv-x="993" d="M477 1534q-94 0 -163.5 58.5t-69.5 160.5v31h106v-27q0 -63 36 -95t91 -32q53 0 89 32t36 95v27h107v-31q0 -102 -69 -160.5t-163 -58.5z" />
<glyph unicode="&#x2d9;" horiz-adv-x="456" d="M160 1608v176h135v-176h-135z" />
<glyph unicode="&#x2da;" horiz-adv-x="770" d="M385.5 1518q-63.5 0 -108 40.5t-44.5 104t44.5 104.5t108 41t107.5 -41t44 -104.5t-44 -104t-107.5 -40.5zM385 1595q29 0 48.5 19.5t19.5 48.5q0 31 -19.5 50.5t-48.5 19.5t-48.5 -19.5t-19.5 -50.5q0 -29 18.5 -48.5t49.5 -19.5z" />
<glyph unicode="&#x2db;" horiz-adv-x="702" d="M215 -231q0 72 48 139t95 100l48 31l108 -23q-18 -12 -47 -34.5t-76 -80t-47 -104.5q0 -41 32 -66.5t62 -29.5l33 -6l-31 -115q-8 0 -23.5 2t-54 14.5t-68.5 31t-54.5 55.5t-24.5 86z" />
<glyph unicode="&#x2dc;" horiz-adv-x="1007" d="M182 1546q0 240 191 240q59 0 103 -37t81 -74t74 -37q82 0 82 142h108q0 -240 -190 -240q-59 0 -104.5 37t-81 73t-74.5 36q-82 0 -82 -140h-107z" />
<glyph unicode="&#x2dd;" horiz-adv-x="1056" d="M487 1540l144 244h155l-178 -244h-121zM215 1540l135 244h133l-137 -244h-131z" />
<glyph unicode="&#x1e9e;" horiz-adv-x="1271" d="M70 0v127h88q45 0 45 45v885q0 164 110.5 273.5t274.5 109.5h540v-99l-321 -456l-53 -72v-4h63q156 -6 263.5 -124t107.5 -275q0 -170 -121 -290t-291 -120h-194v127h186q119 0 195.5 83t76.5 199.5t-75.5 198.5t-192.5 82h-186v101l278 401q61 92 90 121v4 q-14 -4 -88 -4h-268q-111 0 -181.5 -73t-70.5 -181v-934q0 -66 -29.5 -95.5t-95.5 -29.5h-151z" />
<glyph unicode="&#x2000;" horiz-adv-x="903" />
<glyph unicode="&#x2001;" horiz-adv-x="1808" />
<glyph unicode="&#x2002;" horiz-adv-x="903" />
<glyph unicode="&#x2003;" horiz-adv-x="1808" />
<glyph unicode="&#x2004;" horiz-adv-x="602" />
<glyph unicode="&#x2005;" horiz-adv-x="450" />
<glyph unicode="&#x2006;" horiz-adv-x="301" />
<glyph unicode="&#x2007;" horiz-adv-x="301" />
<glyph unicode="&#x2008;" horiz-adv-x="225" />
<glyph unicode="&#x2009;" horiz-adv-x="360" />
<glyph unicode="&#x200a;" horiz-adv-x="100" />
<glyph unicode="&#x2010;" horiz-adv-x="884" d="M152 518v127h581v-127h-581z" />
<glyph unicode="&#x2011;" horiz-adv-x="884" d="M152 518v127h581v-127h-581z" />
<glyph unicode="&#x2012;" horiz-adv-x="884" d="M152 518v127h581v-127h-581z" />
<glyph unicode="&#x2013;" horiz-adv-x="1314" d="M145 522v119h1024v-119h-1024z" />
<glyph unicode="&#x2014;" horiz-adv-x="1724" d="M145 522v119h1434v-119h-1434z" />
<glyph unicode="&#x2018;" horiz-adv-x="434" d="M104 1106l115 352h111l-80 -352h-146z" />
<glyph unicode="&#x2019;" horiz-adv-x="434" d="M104 1108l80 352h146l-115 -352h-111z" />
<glyph unicode="&#x201a;" horiz-adv-x="434" d="M184 168h146l-115 -352h-111z" />
<glyph unicode="&#x201c;" horiz-adv-x="675" d="M346 1106l115 352h110l-79 -352h-146zM104 1106l115 352h111l-80 -352h-146z" />
<glyph unicode="&#x201d;" horiz-adv-x="675" d="M346 1108l80 352h145l-114 -352h-111zM104 1108l80 352h146l-115 -352h-111z" />
<glyph unicode="&#x201e;" horiz-adv-x="675" d="M346 -184l80 352h145l-114 -352h-111zM184 168h146l-115 -352h-111z" />
<glyph unicode="&#x2020;" horiz-adv-x="743" d="M299 -102v1013h-240v119h240v410h137v-410h248v-119h-248v-1013h-137z" />
<glyph unicode="&#x2021;" horiz-adv-x="743" d="M299 -102v469h-240v118h240v426h-240v119h240v410h137v-410h248v-119h-248v-426h248v-118h-248v-469h-137z" />
<glyph unicode="&#x2022;" horiz-adv-x="899" d="M450.5 303q-120.5 0 -206.5 86t-86 207t86 207t206.5 86t205.5 -86t85 -207t-85 -207t-205.5 -86z" />
<glyph unicode="&#x2026;" horiz-adv-x="1673" d="M1239 0v164h158v-164h-158zM758 0v164h157v-164h-157zM276 0v164h158v-164h-158z" />
<glyph unicode="&#x202f;" horiz-adv-x="360" />
<glyph unicode="&#x2030;" horiz-adv-x="2164" d="M414 895q-119 0 -203 83t-84 202q0 117 84 200.5t202.5 83.5t203.5 -84t85 -200q0 -119 -83.5 -202t-204.5 -83zM139 0l1098 1440h145l-1095 -1440h-148zM413.5 1010q69.5 0 119 49t49.5 121q0 70 -49.5 120t-119 50t-117.5 -50.5t-48 -119.5q0 -72 48 -121t117.5 -49z M1507 258q0 119 84 203t203 84t204 -84t85 -203q0 -117 -85 -200t-204 -83t-203 83t-84 200zM819 258q0 119 84 203t203 84t204 -84t85 -203q0 -117 -85 -200t-204 -83t-203 83t-84 200zM1630 260q0 -72 47 -121t117 -49t119 49t49 121q0 70 -49 120t-119 50t-117 -50 t-47 -120zM942 260q0 -72 47 -121t117 -49t119 49t49 121q0 70 -49 120t-119 50t-117 -50t-47 -120z" />
<glyph unicode="&#x2039;" horiz-adv-x="702" d="M414 158l-336 420l336 421h149l-336 -421l336 -420h-149z" />
<glyph unicode="&#x203a;" horiz-adv-x="702" d="M135 158l336 420l-336 421h152l336 -421l-336 -420h-152z" />
<glyph unicode="&#x2044;" horiz-adv-x="851" d="M57 0l609 1440h129l-609 -1440h-129z" />
<glyph unicode="&#x205f;" horiz-adv-x="450" />
<glyph unicode="&#x20ac;" horiz-adv-x="1208" d="M80 545v104h117q-4 37 -4 72l4 94h-117v105h135q61 242 249.5 393t438.5 151q49 0 96.5 -6t69.5 -12l23 -6l-33 -133q-74 23 -158 22q-195 0 -337 -111.5t-195 -297.5h620l-20 -105h-623q-8 -41 -8 -90l4 -76h596l-18 -104h-553q47 -195 193.5 -314.5t344.5 -119.5 q47 0 93 7t69 13l23 8l32 -131q-94 -33 -219 -33q-258 0 -447.5 159t-244.5 411h-131z" />
<glyph unicode="&#x2122;" horiz-adv-x="1998" d="M858 543v104h51q20 0 23 21l59 772h107l235 -514q18 -39 29 -84h4q10 45 29 84l235 514h107l59 -772q2 -20 23 -21h51v-104h-88q-55 0 -74.5 19.5t-24.5 74.5l-41 514l3 59h-5l-229 -499h-94l-230 499h-4l2 -59l-41 -514q-4 -55 -23.5 -74.5t-74.5 -19.5h-88zM408 543 v790h-193q-20 0 -20 -20v-62h-107v95q0 53 20.5 73.5t75.5 20.5h566q55 0 75.5 -20.5t20.5 -73.5v-95h-107v62q0 20 -20 20h-195v-790h-116z" />
<glyph unicode="&#x2212;" d="M102 522v119h1037v-119h-1037z" />
<glyph unicode="&#x221e;" horiz-adv-x="1021" d="M512 360q-145 0 -249.5 104.5t-104.5 250.5q0 147 103.5 249.5t250.5 102.5t249.5 -102.5t102.5 -250t-102.5 -251t-249.5 -103.5z" />
<glyph unicode="&#x2248;" d="M186 657l-67 91q141 141 299 141q102 0 220 -72t185 -72q125 0 232 115l67 -90q-137 -141 -299 -141q-102 0 -220 71.5t-185 71.5q-117 0 -232 -115zM186 301l-67 90q141 141 299 141q102 0 220 -71.5t185 -71.5q121 0 232 115l67 -90q-137 -141 -299 -142 q-102 0 -220 72t-185 72q-117 0 -232 -115z" />
<glyph unicode="&#x2260;" d="M258 170l127 174h-242v119h326l176 237h-502v119h584l176 240l86 -62l-133 -178h242v-119h-324l-176 -237h500v-119h-582l-172 -233z" />
<glyph unicode="&#x2264;" d="M141 530v103l926 414v-138l-752 -325v-4l752 -326v-137zM143 -213h924v-119h-924v119z" />
<glyph unicode="&#x2265;" d="M174 117v137l754 326v4l-754 325v138l926 -414v-103zM174 -213h924v-119h-924v119z" />
<glyph unicode="&#xe000;" horiz-adv-x="1030" d="M0 1030h1030v-1030h-1030v1030z" />
<glyph horiz-adv-x="1228" d="M567 0v1313h-358q-45 0 -45 -45v-97h-133v154q0 66 24.5 90.5t89.5 24.5h1031v-127h-465v-1313h-144z" />
<glyph horiz-adv-x="1228" d="M518 0v1313h-465v127h1030q66 0 90.5 -24.5t24.5 -90.5v-154h-135v97q0 45 -45 45h-356v-1313h-144z" />
<glyph horiz-adv-x="1228" d="M543 0v1313h-482v127h1106v-127h-481v-1313h-143z" />
<glyph horiz-adv-x="686" d="M281 -129h127q14 -49 14 -98q0 -74 -49 -183h-109q39 98 39 164q1 58 -22 117z" />
<glyph horiz-adv-x="2314" d="M86 262v569l258 146v309l543 291l274 -145l271 145l542 -291v-309l254 -146v-569l-254 -147v-312l-542 -288l-271 145l-274 -145l-543 288v312zM193 291l233 -131v-285l487 -258l248 135l242 -135l487 258v285l234 131v510l-234 135v278l-487 259l-242 -132l-248 132 l-487 -259v-278l-233 -135v-510zM293 315v461l203 119v252l440 233l225 -120l219 120l439 -233v-252l204 -119v-461l-204 -122v-248l-439 -234l-219 119l-225 -119l-440 234v248zM907 0h123v444h447v109h-447v367h361q33 0 44 -12.5t11 -43.5v-78h115v132q0 59 -26 85.5 t-89 26.5h-666v-110h127v-920z" />
<glyph horiz-adv-x="1163" d="M582 -25q-496 0 -496 746q0 743 496 743q180 0 294.5 -102t158.5 -262t44 -379q1 -746 -497 -746zM581.5 109q350.5 0 350.5 612q0 610 -350.5 610t-350.5 -610q0 -612 350.5 -612z" />
<glyph horiz-adv-x="1146" d="M205 0v127h321v1057l2 80h-4q-14 -31 -71 -86l-154 -154l-90 92l326 324h135v-1313h315v-127h-780z" />
<glyph horiz-adv-x="1146" d="M92 141q0 147 79 257t190 176l224 129q112 62 190.5 150.5t78.5 205.5t-81 193.5t-214 76.5q-106 0 -181 -47t-75 -108v-68h-135v106q0 66 40 116t102.5 79t128 43t124.5 14q201 0 319.5 -115.5t118.5 -287.5q0 -139 -78.5 -245.5t-190.5 -174.5l-223 -130 q-112 -62 -190.5 -148.5t-78.5 -194.5q0 -41 47 -41h602q45 0 45 45v96h133v-143q0 -66 -29.5 -95.5t-95.5 -29.5h-721q-72 0 -100.5 32.5t-28.5 108.5z" />
<glyph horiz-adv-x="1146" d="M88 176l86 107q6 -6 17.5 -18.5t49.5 -42t78.5 -52.5t104 -41t127.5 -18q131 0 228.5 88t97.5 223q0 139 -102.5 221t-248.5 82h-100l-33 84l355 426q35 47 73 80v4q-41 -6 -116 -6h-375q-45 0 -45 -45v-97h-133v144q0 68 27.5 96.5t92.5 28.5h732v-94l-424 -498 q74 -4 146.5 -27.5t142 -71t112.5 -131t43 -194.5q0 -184 -136 -316.5t-339 -132.5q-80 0 -157 20.5t-129 50.5t-94 59.5t-63 50.5z" />
<glyph horiz-adv-x="1146" d="M29 397v95l700 948h154v-916h229v-127h-229v-397h-144v397h-710zM741 524v588l7 139h-5q-35 -59 -73 -110l-400 -529l-75 -90v-4q57 6 118 6h428z" />
<glyph horiz-adv-x="1146" d="M98 180l90 101q4 -6 13.5 -18.5t40 -41t65.5 -51.5t93.5 -41t121.5 -18q154 0 256.5 96t102.5 239q0 147 -107.5 242.5t-265.5 95.5q-72 0 -141.5 -19.5t-102.5 -39.5l-33 -20l-73 30l61 580q6 68 34 96.5t91 28.5h473q66 0 94.5 -30t28.5 -95v-144h-133v97q0 45 -45 45 h-365q-39 0 -45 -45l-37 -326l-12 -82h4q90 53 217 53q217 0 360.5 -136t143.5 -333q0 -195 -144.5 -332t-361.5 -137q-80 0 -153.5 21.5t-120.5 51.5t-83 59.5t-50 52.5z" />
<glyph horiz-adv-x="1146" d="M608 -25q-231 0 -375.5 185.5t-144.5 472.5q0 113 22.5 227.5t72.5 224t122 193.5t179.5 135t236.5 51q70 0 136.5 -15t96.5 -30l31 -14l-53 -125q-90 51 -209 51q-143 0 -250.5 -89t-162 -219t-68.5 -284h4q49 82 149.5 128t216.5 46q197 0 323 -128t126 -328 q0 -219 -129 -350.5t-324 -131.5zM242 541q0 -154 106.5 -293t257.5 -139q143 0 226 97t83 249q0 150 -89 240.5t-236 90.5q-139 0 -243.5 -77.5t-104.5 -167.5z" />
<glyph horiz-adv-x="1146" d="M197 0l626 1180l80 133v4q-37 -4 -108 -4h-519q-45 0 -45 -45v-97h-135v144q0 66 29 95.5t94 29.5h850v-99l-713 -1341h-159z" />
<glyph horiz-adv-x="1146" d="M82 406q0 70 26.5 135t63.5 108t75 76t64 47l27 14v5l-22 11q-13 7 -46.5 33.5t-59.5 58.5t-47.5 84t-21.5 109q0 158 117 267.5t317.5 109.5t320.5 -106.5t120 -276.5q0 -61 -19.5 -120.5t-48 -100.5t-57.5 -72.5t-47 -46.5l-21 -16v-4q113 -57 172.5 -134t59.5 -196 q0 -170 -140.5 -293t-343.5 -123q-201 0 -345 117t-144 314zM561 825q104 -39 129 -39q45 0 113.5 94.5t68.5 196.5q0 115 -82.5 184.5t-214.5 69.5q-133 0 -211.5 -69.5t-78.5 -174.5q0 -102 68.5 -156.5t207.5 -105.5zM229 412q0 -135 101.5 -219t240.5 -84 q133 0 234.5 80.5t101.5 203.5q0 102 -67.5 158.5t-206.5 112.5q-135 57 -168 57q-55 0 -145.5 -95t-90.5 -214z" />
<glyph horiz-adv-x="1146" d="M162 35l53 125q90 -51 209 -51q143 0 251.5 90t163 220t66.5 283h-4q-49 -82 -150.5 -129t-215.5 -47q-197 0 -322 128t-125 329q0 219 128 350t323 131q231 0 375.5 -185t144.5 -472q0 -143 -38 -285.5t-110.5 -267.5t-198.5 -202t-286 -77q-70 0 -136.5 14.5 t-96.5 30.5zM557 653q139 0 243.5 78t104.5 168q0 154 -106.5 293t-257.5 139q-143 0 -226.5 -97t-83.5 -249q0 -150 89.5 -241t236.5 -91z" />
<glyph horiz-adv-x="2279" d="M571 0v1313h-364q-45 0 -45 -45v-97h-131v152q0 66 25.5 91.5t90.5 25.5h1078q66 0 95.5 -29t29.5 -92v-436l-4 -84h4q33 84 138 170t271 86q184 0 265 -100.5t81 -299.5v-489q0 -45 45 -45h86v-121h-145q-66 0 -95.5 29.5t-29.5 95.5v493q0 70 -7 118t-29.5 94.5t-70 70 t-118.5 23.5q-170 0 -280.5 -124t-110.5 -306v-494h-140v1268q0 45 -45 45h-450v-1313h-144z" />
<glyph horiz-adv-x="1247" d="M569 0v1313h-362q-45 0 -45 -45v-97h-131v152q0 66 25.5 91.5t90.5 25.5h1070v-127h-504v-1313h-144z" />
<glyph horiz-adv-x="1247" d="M31 1171v152q0 66 25.5 91.5t90.5 25.5h1070v-127h-504v-1313h-29l-22 -113q66 -10 105.5 -48t39.5 -97q0 -84 -56.5 -123t-140.5 -39l-102 10v99q39 -12 86 -13q104 0 104 70t-116 70l-31 -2l43 186h-25v1313h-362q-45 0 -45 -45v-97h-131z" />
<glyph horiz-adv-x="1247" d="M571 1540l-170 244h129l111 -164h4l111 164h131l-172 -244h-144zM569 0v1313h-362q-45 0 -45 -45v-97h-131v152q0 66 25.5 91.5t90.5 25.5h1070v-127h-504v-1313h-144z" />
<glyph horiz-adv-x="1247" d="M569 0v664h-325v116h325v533h-362q-45 0 -45 -45v-97h-131v152q0 66 25.5 91.5t90.5 25.5h1070v-127h-504v-533h334v-116h-334v-664h-144z" />
<glyph horiz-adv-x="1247" d="M569 0v1313h-362q-45 0 -45 -45v-97h-131v152q0 66 25.5 91.5t90.5 25.5h1070v-127h-504v-1313h-144zM573 -129h127q14 -49 15 -98q0 -74 -49 -183h-107q37 100 37 164q0 58 -23 117z" />
<glyph horiz-adv-x="884" d="M152 651v127h581v-127h-581z" />
<glyph horiz-adv-x="632" d="M174 741q0 461 221 815h131q-223 -377 -223 -804q0 -473 236 -885h-129q-236 385 -236 874z" />
<glyph horiz-adv-x="632" d="M94 -133q236 412 236 885q0 428 -224 804h132q221 -360 221 -815q0 -489 -236 -874h-129z" />
<glyph horiz-adv-x="620" d="M207 -8v1440q0 66 29.5 95t95.5 29h151v-114h-102q-45 0 -45 -45v-1370q0 -45 45 -45h102v-115h-151q-66 0 -95.5 29.5t-29.5 95.5z" />
<glyph horiz-adv-x="620" d="M137 -18h103q45 0 45 45v1370q0 45 -45 45h-103v114h152q66 0 95.5 -29.5t29.5 -94.5v-1440q0 -66 -30 -95.5t-95 -29.5h-152v115z" />
<glyph horiz-adv-x="667" d="M242 231v195q0 59 -18.5 105.5t-43 70t-50.5 37.5t-44 16l-18 4v127q6 0 18 3.5t42 18.5t53.5 37.5t42 70t18.5 106.5v168q0 96 24.5 168t58 108.5t80 58t78 26.5t64.5 5h31v-114h-19q-27 0 -52.5 -7.5t-60 -31t-55 -78.5t-20.5 -139v-201q0 -55 -16.5 -103t-41 -76 t-49 -47.5t-41.5 -25.5l-16 -8v-4q6 -2 17.5 -7t40 -24.5t50 -46.5t39 -75t17.5 -107v-225q0 -82 21.5 -138.5t55 -79t59 -30.5t52.5 -8h19v-115q-12 -2 -31 -2q-33 0 -64.5 5t-78 27.5t-80 59.5t-58 108.5t-24.5 167.5z" />
<glyph horiz-adv-x="667" d="M90 -20h21q25 0 50 8t59 30.5t55.5 79t21.5 138.5v225q0 59 16.5 107t41 75t49 46.5t40.5 25.5l17 6v4q-6 2 -17.5 7t-40 26.5t-50 48.5t-39 75t-17.5 103v201q0 84 -20.5 139t-55.5 78.5t-59.5 31t-50.5 7.5h-21v114h33q31 0 62.5 -5t77.5 -27.5t80 -58t58.5 -107.5 t24.5 -168v-168q0 -174 137 -225l37 -11v-127q-6 0 -18.5 -3t-42 -18t-53 -37.5t-42 -69t-18.5 -105.5v-195q0 -96 -24.5 -167.5t-58.5 -108.5t-80 -59.5t-77.5 -27.5t-62.5 -5l-33 2v115z" />
<glyph horiz-adv-x="1550" d="M84 719q0 313 214 532t515 219q258 0 380 -110.5t122 -276.5v-645h145v-114h-551q-174 0 -291.5 115.5t-117.5 277.5t116.5 277.5t292.5 115.5h267q-4 102 -92.5 171t-260.5 69q-250 0 -423 -185.5t-173 -445.5q0 -264 173 -445.5t434 -181.5v-123q-317 0 -533.5 217.5 t-216.5 532.5zM643 717q0 -117 81 -198t198 -81h254v563h-250q-121 0 -202 -82.5t-81 -201.5z" />
<glyph horiz-adv-x="1069" d="M444 700l336 422h152l-336 -422l336 -419h-152zM414 281l-336 419l336 422h149l-336 -422l336 -419h-149z" />
<glyph horiz-adv-x="1069" d="M504 281l336 419l-336 422h151l336 -422l-336 -419h-151zM135 281l336 419l-336 422h152l336 -422l-336 -419h-152z" />
<glyph horiz-adv-x="702" d="M414 281l-336 419l336 422h149l-336 -422l336 -419h-149z" />
<glyph horiz-adv-x="702" d="M135 281l336 419l-336 422h152l336 -422l-336 -419h-152z" />
<glyph horiz-adv-x="1314" d="M145 645v119h1024v-119h-1024z" />
<glyph horiz-adv-x="1724" d="M145 645v119h1434v-119h-1434z" />
<glyph horiz-adv-x="440" d="M141 627v164h158v-164h-158z" />
<glyph horiz-adv-x="882" d="M420 1282v158h158v-158h-158zM63 338q0 94 38 169t91.5 126l107.5 98t92 109.5t38 136.5v86h137v-92q0 -90 -36.5 -164t-89.5 -124l-104 -98q-52 -48 -89 -109.5t-37 -131.5q0 -100 75.5 -167.5t192.5 -67.5q61 0 124 21.5t93 41.5l31 23l76 -103q-14 -12 -41 -31.5 t-113 -52.5t-176 -33q-176 0 -293 102.5t-117 260.5z" />
<glyph horiz-adv-x="608" d="M223 1282v158h158v-158h-158zM231 0l7 1063h131l6 -1063h-144z" />
<glyph horiz-adv-x="899" d="M450.5 428q-120.5 0 -206.5 86t-86 207t86 207t206.5 86t205.5 -86t85 -207t-85 -207t-205.5 -86z" />
</font>
</defs>
</svg>
